  0
SECTION
  2
HEADER
  9
$ACADVER
  1
AC1024
  9
$ACADMAINTVER
 70
     6
  9
$DWGCODEPAGE
  3
ANSI_932
  9
$INSBASE
 10
0.0
 20
0.0
 30
0.0
  9
$EXTMIN
 10
-630.0
 20
-445.5
 30
0.0
  9
$EXTMAX
 10
630.0
 20
445.5
 30
0.0
  9
$LIMMIN
 10
-210.0
 20
-148.5
  9
$LIMMAX
 10
210.0
 20
148.5
  9
$ORTHOMODE
 70
     0
  9
$REGENMODE
 70
     1
  9
$FILLMODE
 70
     1
  9
$QTEXTMODE
 70
     0
  9
$MIRRTEXT
 70
     1
  9
$LTSCALE
 40
0.25
  9
$ATTMODE
 70
     1
  9
$TEXTSIZE
 40
0.2
  9
$TRACEWID
 40
0.05
  9
$TEXTSTYLE
  7
Standard
  9
$CLAYER
  8
0
  9
$CELTYPE
  6
ByLayer
  9
$CECOLOR
 62
   256
  9
$CELTSCALE
 40
1.0
  9
$DISPSILH
 70
     0
  9
$DIMSCALE
 40
1.0
  9
$DIMASZ
 40
3.000001907348633
  9
$DIMEXO
 40
1.0
  9
$DIMDLI
 40
10.0
  9
$DIMRND
 40
0.0
  9
$DIMDLE
 40
0.0
  9
$DIMEXE
 40
1.0
  9
$DIMTP
 40
0.0
  9
$DIMTM
 40
0.0
  9
$DIMTXT
 40
4.5
  9
$DIMCEN
 40
0.0
  9
$DIMTSZ
 40
0.0
  9
$DIMTOL
 70
     0
  9
$DIMLIM
 70
     0
  9
$DIMTIH
 70
     0
  9
$DIMTOH
 70
     0
  9
$DIMSE1
 70
     0
  9
$DIMSE2
 70
     0
  9
$DIMTAD
 70
     1
  9
$DIMZIN
 70
     8
  9
$DIMBLK
  1

  9
$DIMASO
 70
     1
  9
$DIMSHO
 70
     1
  9
$DIMPOST
  1

  9
$DIMAPOST
  1

  9
$DIMALT
 70
     0
  9
$DIMALTD
 70
     2
  9
$DIMALTF
 40
0.0393700787401575
  9
$DIMLFAC
 40
1.0
  9
$DIMTOFL
 70
     0
  9
$DIMTVP
 40
0.0
  9
$DIMTIX
 70
     0
  9
$DIMSOXD
 70
     0
  9
$DIMSAH
 70
     0
  9
$DIMBLK1
  1

  9
$DIMBLK2
  1

  9
$DIMSTYLE
  2
Standard
  9
$DIMCLRD
 70
     0
  9
$DIMCLRE
 70
     0
  9
$DIMCLRT
 70
     0
  9
$DIMTFAC
 40
0.65
  9
$DIMGAP
 40
0.09
  9
$DIMJUST
 70
     0
  9
$DIMSD1
 70
     0
  9
$DIMSD2
 70
     0
  9
$DIMTOLJ
 70
     0
  9
$DIMTZIN
 70
     0
  9
$DIMALTZ
 70
     0
  9
$DIMALTTZ
 70
     0
  9
$DIMUPT
 70
     0
  9
$DIMDEC
 70
     2
  9
$DIMTDEC
 70
     2
  9
$DIMALTU
 70
     2
  9
$DIMALTTD
 70
     2
  9
$DIMTXSTY
  7
Standard
  9
$DIMAUNIT
 70
     0
  9
$DIMADEC
 70
     2
  9
$DIMALTRND
 40
0.0
  9
$DIMAZIN
 70
     2
  9
$DIMDSEP
 70
    46
  9
$DIMATFIT
 70
     3
  9
$DIMFRAC
 70
     0
  9
$DIMLDRBLK
  1

  9
$DIMLUNIT
 70
     2
  9
$DIMLWD
 70
    -2
  9
$DIMLWE
 70
    -2
  9
$DIMTMOVE
 70
     0
  9
$DIMFXL
 40
1.0
  9
$DIMFXLON
 70
     0
  9
$DIMJOGANG
 40
0.7853981633974483
  9
$DIMTFILL
 70
     0
  9
$DIMTFILLCLR
 70
     0
  9
$DIMARCSYM
 70
     1
  9
$DIMLTYPE
  6

  9
$DIMLTEX1
  6

  9
$DIMLTEX2
  6

  9
$DIMTXTDIRECTION
 70
     0
  9
$LUNITS
 70
     2
  9
$LUPREC
 70
     4
  9
$SKETCHINC
 40
0.1
  9
$FILLETRAD
 40
0.5
  9
$AUNITS
 70
     0
  9
$AUPREC
 70
     0
  9
$MENU
  1
.
  9
$ELEVATION
 40
0.0
  9
$PELEVATION
 40
0.0
  9
$THICKNESS
 40
0.0
  9
$LIMCHECK
 70
     0
  9
$CHAMFERA
 40
0.0
  9
$CHAMFERB
 40
0.0
  9
$CHAMFERC
 40
0.0
  9
$CHAMFERD
 40
0.0
  9
$SKPOLY
 70
     0
  9
$TDCREATE
 40
2460864.38874456
  9
$TDUCREATE
 40
2460864.01374456
  9
$TDUPDATE
 40
2460864.388744745
  9
$TDUUPDATE
 40
2460864.013744745
  9
$TDINDWG
 40
0.0000000116
  9
$TDUSRTIMER
 40
0.0000000116
  9
$USRTIMER
 70
     1
  9
$ANGBASE
 50
0.0
  9
$ANGDIR
 70
     0
  9
$PDMODE
 70
     0
  9
$PDSIZE
 40
1.0
  9
$PLINEWID
 40
0.0
  9
$SPLFRAME
 70
     0
  9
$SPLINETYPE
 70
     6
  9
$SPLINESEGS
 70
     8
  9
$HANDSEED
  5
3D6
  9
$SURFTAB1
 70
     6
  9
$SURFTAB2
 70
     6
  9
$SURFTYPE
 70
     6
  9
$SURFU
 70
     6
  9
$SURFV
 70
     6
  9
$UCSBASE
  2

  9
$UCSNAME
  2

  9
$UCSORG
 10
0.0
 20
0.0
 30
0.0
  9
$UCSXDIR
 10
1.0
 20
0.0
 30
0.0
  9
$UCSYDIR
 10
0.0
 20
1.0
 30
0.0
  9
$UCSORTHOREF
  2

  9
$UCSORTHOVIEW
 70
     0
  9
$UCSORGTOP
 10
0.0
 20
0.0
 30
0.0
  9
$UCSORGBOTTOM
 10
0.0
 20
0.0
 30
0.0
  9
$UCSORGLEFT
 10
0.0
 20
0.0
 30
0.0
  9
$UCSORGRIGHT
 10
0.0
 20
0.0
 30
0.0
  9
$UCSORGFRONT
 10
0.0
 20
0.0
 30
0.0
  9
$UCSORGBACK
 10
0.0
 20
0.0
 30
0.0
  9
$PUCSBASE
  2

  9
$PUCSNAME
  2

  9
$PUCSORG
 10
0.0
 20
0.0
 30
0.0
  9
$PUCSXDIR
 10
1.0
 20
0.0
 30
0.0
  9
$PUCSYDIR
 10
0.0
 20
1.0
 30
0.0
  9
$PUCSORTHOREF
  2

  9
$PUCSORTHOVIEW
 70
     0
  9
$PUCSORGTOP
 10
0.0
 20
0.0
 30
0.0
  9
$PUCSORGBOTTOM
 10
0.0
 20
0.0
 30
0.0
  9
$PUCSORGLEFT
 10
0.0
 20
0.0
 30
0.0
  9
$PUCSORGRIGHT
 10
0.0
 20
0.0
 30
0.0
  9
$PUCSORGFRONT
 10
0.0
 20
0.0
 30
0.0
  9
$PUCSORGBACK
 10
0.0
 20
0.0
 30
0.0
  9
$USERI1
 70
     0
  9
$USERI2
 70
     0
  9
$USERI3
 70
     0
  9
$USERI4
 70
     0
  9
$USERI5
 70
     0
  9
$USERR1
 40
0.0
  9
$USERR2
 40
0.0
  9
$USERR3
 40
0.0
  9
$USERR4
 40
0.0
  9
$USERR5
 40
0.0
  9
$WORLDVIEW
 70
     1
  9
$SHADEDGE
 70
     3
  9
$SHADEDIF
 70
    70
  9
$TILEMODE
 70
     1
  9
$MAXACTVP
 70
    64
  9
$PINSBASE
 10
0.0
 20
0.0
 30
0.0
  9
$PLIMCHECK
 70
     0
  9
$PEXTMIN
 10
1.000000000000000E+20
 20
1.000000000000000E+20
 30
1.000000000000000E+20
  9
$PEXTMAX
 10
-1.000000000000000E+20
 20
-1.000000000000000E+20
 30
-1.000000000000000E+20
  9
$PLIMMIN
 10
0.0
 20
0.0
  9
$PLIMMAX
 10
12.0
 20
9.0
  9
$UNITMODE
 70
     0
  9
$VISRETAIN
 70
     0
  9
$PLINEGEN
 70
     1
  9
$PSLTSCALE
 70
     0
  9
$TREEDEPTH
 70
  3020
  9
$CMLSTYLE
  2
Standard
  9
$CMLJUST
 70
     0
  9
$CMLSCALE
 40
1.0
  9
$PROXYGRAPHICS
 70
     0
  9
$MEASUREMENT
 70
     1
  9
$CELWEIGHT
370
    -1
  9
$ENDCAPS
280
     0
  9
$JOINSTYLE
280
     0
  9
$LWDISPLAY
290
     1
  9
$INSUNITS
 70
     4
  9
$HYPERLINKBASE
  1

  9
$STYLESHEET
  1

  9
$XEDIT
290
     1
  9
$CEPSNTYPE
380
     0
  9
$PSTYLEMODE
290
     1
  9
$FINGERPRINTGUID
  2
{7b5e9329-1b4b-4a43-88e1-1a5b80ffb7d3}
  9
$VERSIONGUID
  2
{FAEB1C32-E019-11D5-929B-00C0DF256EC4}
  9
$EXTNAMES
290
     1
  9
$PSVPSCALE
 40
0.0
  9
$OLESTARTUP
290
     0
  9
$SORTENTS
280
   127
  9
$INDEXCTL
280
     0
  9
$HIDETEXT
280
     1
  9
$XCLIPFRAME
280
     2
  9
$HALOGAP
280
     0
  9
$OBSCOLOR
 70
   257
  9
$OBSLTYPE
280
     0
  9
$INTERSECTIONDISPLAY
280
     0
  9
$INTERSECTIONCOLOR
 70
   257
  9
$DIMASSOC
280
     2
  9
$PROJECTNAME
  1

  9
$CAMERADISPLAY
290
     0
  9
$LENSLENGTH
 40
50.0
  9
$CAMERAHEIGHT
 40
0.0
  9
$STEPSPERSEC
 40
2.0
  9
$STEPSIZE
 40
6.0
  9
$3DDWFPREC
 40
2.0
  9
$PSOLWIDTH
 40
0.25
  9
$PSOLHEIGHT
 40
4.0
  9
$LOFTANG1
 40
1.570796326794897
  9
$LOFTANG2
 40
1.570796326794897
  9
$LOFTMAG1
 40
0.0
  9
$LOFTMAG2
 40
0.0
  9
$LOFTPARAM
 70
     7
  9
$LOFTNORMALS
280
     1
  9
$LATITUDE
 40
37.795
  9
$LONGITUDE
 40
-122.394
  9
$NORTHDIRECTION
 40
0.0
  9
$TIMEZONE
 70
 -8000
  9
$LIGHTGLYPHDISPLAY
280
     1
  9
$TILEMODELIGHTSYNCH
280
     1
  9
$CMATERIAL
347
44
  9
$SOLIDHIST
280
     0
  9
$SHOWHIST
280
     1
  9
$DWFFRAME
280
     2
  9
$DGNFRAME
280
     2
  9
$REALWORLDSCALE
290
     1
  9
$INTERFERECOLOR
 62
   256
  9
$CSHADOW
280
     0
  9
$SHADOWPLANELOCATION
 40
0.0
  0
ENDSEC
  0
SECTION
  2
CLASSES
  0
CLASS
  1
ACDBDICTIONARYWDFLT
  2
AcDbDictionaryWithDefault
  3
ObjectDBX Classes
 90
        0
 91
        3
280
     0
281
     0
  0
CLASS
  1
VISUALSTYLE
  2
AcDbVisualStyle
  3
ObjectDBX Classes
 90
     4095
 91
        3
280
     0
281
     0
  0
CLASS
  1
MATERIAL
  2
AcDbMaterial
  3
ObjectDBX Classes
 90
     1153
 91
        3
280
     0
281
     0
  0
CLASS
  1
SCALE
  2
AcDbScale
  3
ObjectDBX Classes
 90
     1153
 91
        3
280
     0
281
     0
  0
CLASS
  1
TABLESTYLE
  2
AcDbTableStyle
  3
ObjectDBX Classes
 90
     4095
 91
        3
280
     0
281
     0
  0
CLASS
  1
MLEADERSTYLE
  2
AcDbMLeaderStyle
  3
ACDB_MLEADERSTYLE_CLASS
 90
     4095
 91
        3
280
     0
281
     0
  0
CLASS
  1
SUN
  2
AcDbSun
  3
SCENEOE
 90
     1153
 91
        3
280
     0
281
     0
  0
CLASS
  1
DICTIONARYVAR
  2
AcDbDictionaryVar
  3
ObjectDBX Classes
 90
        0
 91
        3
280
     0
281
     0
  0
CLASS
  1
CELLSTYLEMAP
  2
AcDbCellStyleMap
  3
ObjectDBX Classes
 90
     1152
 91
        3
280
     0
281
     0
  0
ENDSEC
  0
SECTION
  2
TABLES
  0
TABLE
  2
VPORT
  5
8
330
0
100
AcDbSymbolTable
 70
     1
  0
VPORT
  5
29
330
8
100
AcDbSymbolTableRecord
100
AcDbViewportTableRecord
  2
*Active
 70
     0
 10
0.0
 20
0.0
 11
1.0
 21
1.0
 12
0.0
 22
0.0
 13
0.0
 23
0.0
 14
0.5
 24
0.5
 15
0.5
 25
0.5
 16
0.0
 26
0.0
 36
1.0
 17
-0.0000000000000036
 27
0.0
 37
0.0
 40
302.94
 41
1.414141414141414
 42
50.0
 43
0.0
 44
0.0
 50
0.0
 51
0.0
 71
     0
 72
  1000
 73
     1
 74
     1
 75
     0
 76
     0
 77
     0
 78
     0
281
     0
 65
     1
110
0.0
120
0.0
130
0.0
111
1.0
121
0.0
131
0.0
112
0.0
122
1.0
132
0.0
 79
     0
146
0.0
348
2F
 60
     3
 61
     5
292
     1
282
     1
141
0.0
142
0.0
 63
   250
361
6D
  0
ENDTAB
  0
TABLE
  2
LTYPE
  5
5
330
0
100
AcDbSymbolTable
 70
    67
  0
LTYPE
  5
14
330
5
100
AcDbSymbolTableRecord
100
AcDbLinetypeTableRecord
  2
ByBlock
 70
     0
  3

 72
    65
 73
     0
 40
0.0
  0
LTYPE
  5
15
330
5
100
AcDbSymbolTableRecord
100
AcDbLinetypeTableRecord
  2
ByLayer
 70
     0
  3

 72
    65
 73
     0
 40
0.0
  0
LTYPE
  5
16
330
5
100
AcDbSymbolTableRecord
100
AcDbLinetypeTableRecord
  2
Continuous
 70
     0
  3
Solid line
 72
    65
 73
     0
 40
0.0
  0
LTYPE
  5
6F
330
5
100
AcDbSymbolTableRecord
100
AcDbLinetypeTableRecord
  2
HIDDENX2
 70
     0
  3
Hidden (2x) ____ ____ ____ ____ ____ ____ ____ 
 72
    65
 73
     2
 40
19.05
 49
12.7
 74
     0
 49
-6.35
 74
     0
  0
LTYPE
  5
70
330
5
100
AcDbSymbolTableRecord
100
AcDbLinetypeTableRecord
  2
HIDDEN
 70
     0
  3
Hidden __ __ __ __ __ __ __ __ __ __ __ __ __ __
 72
    65
 73
     2
 40
9.524999999999999
 49
6.35
 74
     0
 49
-3.175
 74
     0
  0
LTYPE
  5
71
330
5
100
AcDbSymbolTableRecord
100
AcDbLinetypeTableRecord
  2
HIDDEN2
 70
     0
  3
Hidden (.5x) _ _ _ _ _ _ _ _ _ _ _ _ _ _ _ _ _ 
 72
    65
 73
     2
 40
4.762499999999999
 49
3.175
 74
     0
 49
-1.5875
 74
     0
  0
LTYPE
  5
72
330
5
100
AcDbSymbolTableRecord
100
AcDbLinetypeTableRecord
  2
DASHED
 70
     0
  3
Dashed __ __ __ __ __ __ __ __ __ __ __ __ __ _
 72
    65
 73
     2
 40
19.05
 49
12.7
 74
     0
 49
-6.35
 74
     0
  0
LTYPE
  5
73
330
5
100
AcDbSymbolTableRecord
100
AcDbLinetypeTableRecord
  2
DASHED2
 70
     0
  3
Dashed (.5x) _ _ _ _ _ _ _ _ _ _ _ _ _ _ _ _ _ 
 72
    65
 73
     2
 40
9.524999999999999
 49
6.35
 74
     0
 49
-3.175
 74
     0
  0
LTYPE
  5
74
330
5
100
AcDbSymbolTableRecord
100
AcDbLinetypeTableRecord
  2
DASHEDX2
 70
     0
  3
Dashed (2x) ____  ____  ____  ____  ____  ___
 72
    65
 73
     2
 40
38.09999999999999
 49
25.4
 74
     0
 49
-12.7
 74
     0
  0
LTYPE
  5
75
330
5
100
AcDbSymbolTableRecord
100
AcDbLinetypeTableRecord
  2
DOTX2
 70
     0
  3
Dot (2x) .  .  .  .  .  .  .  .  .  .  .  .  .  .
 72
    65
 73
     2
 40
12.7
 49
0.0
 74
     0
 49
-12.7
 74
     0
  0
LTYPE
  5
76
330
5
100
AcDbSymbolTableRecord
100
AcDbLinetypeTableRecord
  2
DOT
 70
     0
  3
Dot . . . . . . . . . . . . . . . . . . . . . . . .
 72
    65
 73
     2
 40
6.35
 49
0.0
 74
     0
 49
-6.35
 74
     0
  0
LTYPE
  5
77
330
5
100
AcDbSymbolTableRecord
100
AcDbLinetypeTableRecord
  2
DOT2
 70
     0
  3
Dot (.5x) ........................................
 72
    65
 73
     2
 40
3.175
 49
0.0
 74
     0
 49
-3.175
 74
     0
  0
LTYPE
  5
78
330
5
100
AcDbSymbolTableRecord
100
AcDbLinetypeTableRecord
  2
CENTERX2
 70
     0
  3
Center (2x) ________  __  ________  __  _____
 72
    65
 73
     4
 40
101.6
 49
63.5
 74
     0
 49
-12.7
 74
     0
 49
12.7
 74
     0
 49
-12.7
 74
     0
  0
LTYPE
  5
79
330
5
100
AcDbSymbolTableRecord
100
AcDbLinetypeTableRecord
  2
CENTER
 70
     0
  3
Center ____ _ ____ _ ____ _ ____ _ ____ _ ____
 72
    65
 73
     4
 40
50.8
 49
31.75
 74
     0
 49
-6.35
 74
     0
 49
6.35
 74
     0
 49
-6.35
 74
     0
  0
LTYPE
  5
7A
330
5
100
AcDbSymbolTableRecord
100
AcDbLinetypeTableRecord
  2
CENTER2
 70
     0
  3
Center (.5x) ___ _ ___ _ ___ _ ___ _ ___ _ ___
 72
    65
 73
     4
 40
28.575
 49
19.05
 74
     0
 49
-3.175
 74
     0
 49
3.175
 74
     0
 49
-3.175
 74
     0
  0
LTYPE
  5
7B
330
5
100
AcDbSymbolTableRecord
100
AcDbLinetypeTableRecord
  2
DASHDOTX2
 70
     0
  3
Dash dot (2x) ____  .  ____  .  ____  .  ___
 72
    65
 73
     4
 40
50.8
 49
25.4
 74
     0
 49
-12.7
 74
     0
 49
0.0
 74
     0
 49
-12.7
 74
     0
  0
LTYPE
  5
7C
330
5
100
AcDbSymbolTableRecord
100
AcDbLinetypeTableRecord
  2
DASHDOT
 70
     0
  3
Dash dot __ . __ . __ . __ . __ . __ . __ . __
 72
    65
 73
     4
 40
25.4
 49
12.7
 74
     0
 49
-6.35
 74
     0
 49
0.0
 74
     0
 49
-6.35
 74
     0
  0
LTYPE
  5
7D
330
5
100
AcDbSymbolTableRecord
100
AcDbLinetypeTableRecord
  2
DASHDOT2
 70
     0
  3
Dash dot (.5x) _._._._._._._._._._._._._._._.
 72
    65
 73
     4
 40
12.7
 49
6.35
 74
     0
 49
-3.175
 74
     0
 49
0.0
 74
     0
 49
-3.175
 74
     0
  0
LTYPE
  5
7E
330
5
100
AcDbSymbolTableRecord
100
AcDbLinetypeTableRecord
  2
DIVIDEX2
 70
     0
  3
Divide (2x) ________  .  .  ________  .  .  _
 72
    65
 73
     6
 40
63.5
 49
25.4
 74
     0
 49
-12.7
 74
     0
 49
0.0
 74
     0
 49
-12.7
 74
     0
 49
0.0
 74
     0
 49
-12.7
 74
     0
  0
LTYPE
  5
7F
330
5
100
AcDbSymbolTableRecord
100
AcDbLinetypeTableRecord
  2
DIVIDE
 70
     0
  3
Divide ____ . . ____ . . ____ . . ____ . . ____
 72
    65
 73
     6
 40
31.75
 49
12.7
 74
     0
 49
-6.35
 74
     0
 49
0.0
 74
     0
 49
-6.35
 74
     0
 49
0.0
 74
     0
 49
-6.35
 74
     0
  0
LTYPE
  5
80
330
5
100
AcDbSymbolTableRecord
100
AcDbLinetypeTableRecord
  2
DIVIDE2
 70
     0
  3
Divide (.5x) __..__..__..__..__..__..__..__.._
 72
    65
 73
     6
 40
15.875
 49
6.35
 74
     0
 49
-3.175
 74
     0
 49
0.0
 74
     0
 49
-3.175
 74
     0
 49
0.0
 74
     0
 49
-3.175
 74
     0
  0
LTYPE
  5
81
330
5
100
AcDbSymbolTableRecord
100
AcDbLinetypeTableRecord
  2
BORDERX2
 70
     0
  3
Border (2x) ____  ____  .  ____  ____  .  ___
 72
    65
 73
     6
 40
88.89999999999999
 49
25.4
 74
     0
 49
-12.7
 74
     0
 49
25.4
 74
     0
 49
-12.7
 74
     0
 49
0.0
 74
     0
 49
-12.7
 74
     0
  0
LTYPE
  5
82
330
5
100
AcDbSymbolTableRecord
100
AcDbLinetypeTableRecord
  2
BORDER
 70
     0
  3
Border __ __ . __ __ . __ __ . __ __ . __ __ .
 72
    65
 73
     6
 40
44.45
 49
12.7
 74
     0
 49
-6.35
 74
     0
 49
12.7
 74
     0
 49
-6.35
 74
     0
 49
0.0
 74
     0
 49
-6.35
 74
     0
  0
LTYPE
  5
83
330
5
100
AcDbSymbolTableRecord
100
AcDbLinetypeTableRecord
  2
BORDER2
 70
     0
  3
Border (.5x) __.__.__.__.__.__.__.__.__.__.__.
 72
    65
 73
     6
 40
22.225
 49
6.35
 74
     0
 49
-3.175
 74
     0
 49
6.35
 74
     0
 49
-3.175
 74
     0
 49
0.0
 74
     0
 49
-3.175
 74
     0
  0
LTYPE
  5
84
330
5
100
AcDbSymbolTableRecord
100
AcDbLinetypeTableRecord
  2
PHANTOMX2
 70
     0
  3
Phantom (2x) ____________    ____    ____   _
 72
    65
 73
     6
 40
127.0
 49
63.5
 74
     0
 49
-12.7
 74
     0
 49
12.7
 74
     0
 49
-12.7
 74
     0
 49
12.7
 74
     0
 49
-12.7
 74
     0
  0
LTYPE
  5
85
330
5
100
AcDbSymbolTableRecord
100
AcDbLinetypeTableRecord
  2
PHANTOM
 70
     0
  3
Phantom ______  __  __  ______  __  __  ______ 
 72
    65
 73
     6
 40
63.5
 49
31.75
 74
     0
 49
-6.35
 74
     0
 49
6.35
 74
     0
 49
-6.35
 74
     0
 49
6.35
 74
     0
 49
-6.35
 74
     0
  0
LTYPE
  5
86
330
5
100
AcDbSymbolTableRecord
100
AcDbLinetypeTableRecord
  2
PHANTOM2
 70
     0
  3
Phantom (.5x) ___ _ _ ___ _ _ ___ _ _ ___ _ _
 72
    65
 73
     6
 40
31.75
 49
15.875
 74
     0
 49
-3.175
 74
     0
 49
3.175
 74
     0
 49
-3.175
 74
     0
 49
3.175
 74
     0
 49
-3.175
 74
     0
  0
LTYPE
  5
87
330
5
100
AcDbSymbolTableRecord
100
AcDbLinetypeTableRecord
  2
ACAD_ISO06W100
 70
     0
  3
ISO long-dash triple-dot ____ ... ____ ... ____
 72
    65
 73
     8
 40
36.0
 49
24.0
 74
     0
 49
-3.0
 74
     0
 49
0.0
 74
     0
 49
-3.0
 74
     0
 49
0.0
 74
     0
 49
-3.0
 74
     0
 49
0.0
 74
     0
 49
-3.0
 74
     0
  0
LTYPE
  5
88
330
5
100
AcDbSymbolTableRecord
100
AcDbLinetypeTableRecord
  2
ACAD_ISO13W100
 70
     0
  3
ISO double-dash double-dot __ __ . . __ __ . . _
 72
    65
 73
     8
 40
36.0
 49
12.0
 74
     0
 49
-3.0
 74
     0
 49
12.0
 74
     0
 49
-3.0
 74
     0
 49
0.0
 74
     0
 49
-3.0
 74
     0
 49
0.0
 74
     0
 49
-3.0
 74
     0
  0
LTYPE
  5
89
330
5
100
AcDbSymbolTableRecord
100
AcDbLinetypeTableRecord
  2
ACAD_ISO14W100
 70
     0
  3
ISO dash triple-dot __ . . . __ . . . __ . . . _
 72
    65
 73
     8
 40
24.0
 49
12.0
 74
     0
 49
-3.0
 74
     0
 49
0.0
 74
     0
 49
-3.0
 74
     0
 49
0.0
 74
     0
 49
-3.0
 74
     0
 49
0.0
 74
     0
 49
-3.0
 74
     0
  0
LTYPE
  5
8A
330
5
100
AcDbSymbolTableRecord
100
AcDbLinetypeTableRecord
  2
ACAD_ISO02W100
 70
     0
  3
ISO dash __ __ __ __ __ __ __ __ __ __ __ __ __
 72
    65
 73
     2
 40
15.0
 49
12.0
 74
     0
 49
-3.0
 74
     0
  0
LTYPE
  5
8B
330
5
100
AcDbSymbolTableRecord
100
AcDbLinetypeTableRecord
  2
ACAD_ISO03W100
 70
     0
  3
ISO dash space __    __    __    __    __    __
 72
    65
 73
     2
 40
30.0
 49
12.0
 74
     0
 49
-18.0
 74
     0
  0
LTYPE
  5
8C
330
5
100
AcDbSymbolTableRecord
100
AcDbLinetypeTableRecord
  2
ACAD_ISO04W100
 70
     0
  3
ISO long-dash dot ____ . ____ . ____ . ____ . _
 72
    65
 73
     4
 40
30.0
 49
24.0
 74
     0
 49
-3.0
 74
     0
 49
0.0
 74
     0
 49
-3.0
 74
     0
  0
LTYPE
  5
8D
330
5
100
AcDbSymbolTableRecord
100
AcDbLinetypeTableRecord
  2
ACAD_ISO05W100
 70
     0
  3
ISO long-dash double-dot ____ .. ____ .. ____ . 
 72
    65
 73
     6
 40
33.0
 49
24.0
 74
     0
 49
-3.0
 74
     0
 49
0.0
 74
     0
 49
-3.0
 74
     0
 49
0.0
 74
     0
 49
-3.0
 74
     0
  0
LTYPE
  5
8E
330
5
100
AcDbSymbolTableRecord
100
AcDbLinetypeTableRecord
  2
ACAD_ISO07W100
 70
     0
  3
ISO dot . . . . . . . . . . . . . . . . . . . . 
 72
    65
 73
     2
 40
3.0
 49
0.0
 74
     0
 49
-3.0
 74
     0
  0
LTYPE
  5
8F
330
5
100
AcDbSymbolTableRecord
100
AcDbLinetypeTableRecord
  2
ACAD_ISO08W100
 70
     0
  3
ISO long-dash short-dash ____ __ ____ __ ____ _
 72
    65
 73
     4
 40
36.0
 49
24.0
 74
     0
 49
-3.0
 74
     0
 49
6.0
 74
     0
 49
-3.0
 74
     0
  0
LTYPE
  5
90
330
5
100
AcDbSymbolTableRecord
100
AcDbLinetypeTableRecord
  2
ACAD_ISO09W100
 70
     0
  3
ISO long-dash double-short-dash ____ __ __ ____
 72
    65
 73
     6
 40
45.0
 49
24.0
 74
     0
 49
-3.0
 74
     0
 49
6.0
 74
     0
 49
-3.0
 74
     0
 49
6.0
 74
     0
 49
-3.0
 74
     0
  0
LTYPE
  5
91
330
5
100
AcDbSymbolTableRecord
100
AcDbLinetypeTableRecord
  2
ACAD_ISO10W100
 70
     0
  3
ISO dash dot __ . __ . __ . __ . __ . __ . __ . 
 72
    65
 73
     4
 40
18.0
 49
12.0
 74
     0
 49
-3.0
 74
     0
 49
0.0
 74
     0
 49
-3.0
 74
     0
  0
LTYPE
  5
92
330
5
100
AcDbSymbolTableRecord
100
AcDbLinetypeTableRecord
  2
ACAD_ISO11W100
 70
     0
  3
ISO double-dash dot __ __ . __ __ . __ __ . __ _
 72
    65
 73
     6
 40
33.0
 49
12.0
 74
     0
 49
-3.0
 74
     0
 49
12.0
 74
     0
 49
-3.0
 74
     0
 49
0.0
 74
     0
 49
-3.0
 74
     0
  0
LTYPE
  5
93
330
5
100
AcDbSymbolTableRecord
100
AcDbLinetypeTableRecord
  2
ACAD_ISO12W100
 70
     0
  3
ISO dash double-dot __ . . __ . . __ . . __ . . 
 72
    65
 73
     6
 40
21.0
 49
12.0
 74
     0
 49
-3.0
 74
     0
 49
0.0
 74
     0
 49
-3.0
 74
     0
 49
0.0
 74
     0
 49
-3.0
 74
     0
  0
LTYPE
  5
94
330
5
100
AcDbSymbolTableRecord
100
AcDbLinetypeTableRecord
  2
ACAD_ISO15W100
 70
     0
  3
ISO double-dash triple-dot __ __ . . . __ __ . .
 72
    65
 73
    10
 40
39.0
 49
12.0
 74
     0
 49
-3.0
 74
     0
 49
12.0
 74
     0
 49
-3.0
 74
     0
 49
0.0
 74
     0
 49
-3.0
 74
     0
 49
0.0
 74
     0
 49
-3.0
 74
     0
 49
0.0
 74
     0
 49
-3.0
 74
     0
  0
LTYPE
  5
95
330
5
100
AcDbSymbolTableRecord
100
AcDbLinetypeTableRecord
  2
JIS_02_0.7
 70
     0
  3
HIDDEN0.75 _ _ _ _ _ _ _ _ _ _ _ _ _ _ _ _ _ 
 72
    65
 73
     2
 40
1.35
 49
0.75
 74
     0
 49
-0.6
 74
     0
  0
LTYPE
  5
96
330
5
100
AcDbSymbolTableRecord
100
AcDbLinetypeTableRecord
  2
JIS_02_1.0
 70
     0
  3
HIDDEN01 _ _ _ _ _ _ _ _ _ _ _ _ _ _ _ _ _ 
 72
    65
 73
     2
 40
2.0
 49
1.0
 74
     0
 49
-1.0
 74
     0
  0
LTYPE
  5
97
330
5
100
AcDbSymbolTableRecord
100
AcDbLinetypeTableRecord
  2
JIS_02_1.2
 70
     0
  3
HIDDEN01.25  _ _ _ _ _ _ _ _ _ _ _ _ _ _ _ _ _ 
 72
    65
 73
     2
 40
2.5
 49
1.25
 74
     0
 49
-1.25
 74
     0
  0
LTYPE
  5
98
330
5
100
AcDbSymbolTableRecord
100
AcDbLinetypeTableRecord
  2
JIS_02_2.0
 70
     0
  3
HIDDEN02 __ __ __ __ __ __ __ __ __ __ __ 
 72
    65
 73
     2
 40
3.0
 49
2.0
 74
     0
 49
-1.0
 74
     0
  0
LTYPE
  5
99
330
5
100
AcDbSymbolTableRecord
100
AcDbLinetypeTableRecord
  2
JIS_02_4.0
 70
     0
  3
HIDDEN04 ____ ____ ____ ____ ____ ____ ____ 
 72
    65
 73
     2
 40
5.5
 49
4.0
 74
     0
 49
-1.5
 74
     0
  0
LTYPE
  5
9A
330
5
100
AcDbSymbolTableRecord
100
AcDbLinetypeTableRecord
  2
JIS_08_11
 70
     0
  3
1SASEN11 ___ _ ___ _ ___ _ ___ _ ___ _ ___
 72
    65
 73
     4
 40
12.8
 49
11.0
 74
     0
 49
-0.6
 74
     0
 49
0.6
 74
     0
 49
-0.6
 74
     0
  0
LTYPE
  5
9B
330
5
100
AcDbSymbolTableRecord
100
AcDbLinetypeTableRecord
  2
JIS_08_15
 70
     0
  3
1SASEN15 ____ _ ____ _ ____ _ ____ _ ____ 
 72
    65
 73
     4
 40
17.25
 49
15.0
 74
     0
 49
-0.75
 74
     0
 49
0.75
 74
     0
 49
-0.75
 74
     0
  0
LTYPE
  5
9C
330
5
100
AcDbSymbolTableRecord
100
AcDbLinetypeTableRecord
  2
JIS_08_25
 70
     0
  3
1SASEN25 ________  __  ________  __  _____
 72
    65
 73
     4
 40
28.0
 49
25.0
 74
     0
 49
-1.125
 74
     0
 49
0.75
 74
     0
 49
-1.125
 74
     0
  0
LTYPE
  5
9D
330
5
100
AcDbSymbolTableRecord
100
AcDbLinetypeTableRecord
  2
JIS_08_37
 70
     0
  3
1SASEN37 ________  __  ________  __  _____
 72
    65
 73
     4
 40
40.5
 49
37.5
 74
     0
 49
-1.125
 74
     0
 49
0.75
 74
     0
 49
-1.125
 74
     0
  0
LTYPE
  5
9E
330
5
100
AcDbSymbolTableRecord
100
AcDbLinetypeTableRecord
  2
JIS_08_50
 70
     0
  3
1SASEN50 _______________  __  ____________
 72
    65
 73
     4
 40
53.0
 49
50.0
 74
     0
 49
-1.125
 74
     0
 49
0.75
 74
     0
 49
-1.125
 74
     0
  0
LTYPE
  5
9F
330
5
100
AcDbSymbolTableRecord
100
AcDbLinetypeTableRecord
  2
JIS_09_08
 70
     0
  3
2SASEN8 __ _ _ __ _ _ __ _ _ __ _ _ __ _ _ 
 72
    65
 73
     6
 40
10.75
 49
8.0
 74
     0
 49
-0.55
 74
     0
 49
0.55
 74
     0
 49
-0.55
 74
     0
 49
0.55
 74
     0
 49
-0.55
 74
     0
  0
LTYPE
  5
A0
330
5
100
AcDbSymbolTableRecord
100
AcDbLinetypeTableRecord
  2
JIS_09_15
 70
     0
  3
2SASEN15 ___ _ _ ___ _ _ ___ _ _ ___ _ _ ___ 
 72
    65
 73
     6
 40
18.9
 49
15.0
 74
     0
 49
-0.9
 74
     0
 49
0.6
 74
     0
 49
-0.9
 74
     0
 49
0.6
 74
     0
 49
-0.9
 74
     0
  0
LTYPE
  5
A1
330
5
100
AcDbSymbolTableRecord
100
AcDbLinetypeTableRecord
  2
JIS_09_29
 70
     0
  3
2SASEN29 ______　__  __  ______　__  __  ___
 72
    65
 73
     6
 40
34.0
 49
29.0
 74
     0
 49
-1.2
 74
     0
 49
0.7
 74
     0
 49
-1.2
 74
     0
 49
0.7
 74
     0
 49
-1.2
 74
     0
  0
LTYPE
  5
A2
330
5
100
AcDbSymbolTableRecord
100
AcDbLinetypeTableRecord
  2
JIS_09_50
 70
     0
  3
2SASEN50 ____________　__  __  _____________
 72
    65
 73
     6
 40
55.0
 49
50.0
 74
     0
 49
-1.2
 74
     0
 49
0.7
 74
     0
 49
-1.2
 74
     0
 49
0.7
 74
     0
 49
-1.2
 74
     0
  0
LTYPE
  5
A3
330
5
100
AcDbSymbolTableRecord
100
AcDbLinetypeTableRecord
  2
SXF_破線
 70
     0
  3
02 dashed -- -- -- -- -- --
 72
    65
 73
     2
 40
7.5
 49
6.0
 74
     0
 49
-1.5
 74
     0
  0
LTYPE
  5
A4
330
5
100
AcDbSymbolTableRecord
100
AcDbLinetypeTableRecord
  2
SXF_跳び破線
 70
     0
  3
03 dashed_spaced --  --  --  --
 72
    65
 73
     2
 40
12.0
 49
6.0
 74
     0
 49
-6.0
 74
     0
  0
LTYPE
  5
A5
330
5
100
AcDbSymbolTableRecord
100
AcDbLinetypeTableRecord
  2
SXF_一点長鎖線
 70
     0
  3
04 long_dashed_dotted ---- . ---- . ----
 72
    65
 73
     4
 40
15.25
 49
12.0
 74
     0
 49
-1.5
 74
     0
 49
0.25
 74
     0
 49
-1.5
 74
     0
  0
LTYPE
  5
A6
330
5
100
AcDbSymbolTableRecord
100
AcDbLinetypeTableRecord
  2
SXF_二点長鎖線
 70
     0
  3
05 long_dashed_double-dotted ---- . . ---- 
 72
    65
 73
     6
 40
17.0
 49
12.0
 74
     0
 49
-1.5
 74
     0
 49
0.25
 74
     0
 49
-1.5
 74
     0
 49
0.25
 74
     0
 49
-1.5
 74
     0
  0
LTYPE
  5
A7
330
5
100
AcDbSymbolTableRecord
100
AcDbLinetypeTableRecord
  2
SXF_三点長鎖線
 70
     0
  3
06 long_dashed_triplicate-dotted ---- ... ---- 
 72
    65
 73
     8
 40
18.75
 49
12.0
 74
     0
 49
-1.5
 74
     0
 49
0.25
 74
     0
 49
-1.5
 74
     0
 49
0.25
 74
     0
 49
-1.5
 74
     0
 49
0.25
 74
     0
 49
-1.5
 74
     0
  0
LTYPE
  5
A8
330
5
100
AcDbSymbolTableRecord
100
AcDbLinetypeTableRecord
  2
SXF_点線
 70
     0
  3
07 dotted . . . . . . . . . . . . 
 72
    65
 73
     2
 40
1.75
 49
0.25
 74
     0
 49
-1.5
 74
     0
  0
LTYPE
  5
A9
330
5
100
AcDbSymbolTableRecord
100
AcDbLinetypeTableRecord
  2
SXF_一点鎖線
 70
     0
  3
08 chain ---- - --- - --- - ---
 72
    65
 73
     4
 40
18.5
 49
12.0
 74
     0
 49
-1.5
 74
     0
 49
3.5
 74
     0
 49
-1.5
 74
     0
  0
LTYPE
  5
AA
330
5
100
AcDbSymbolTableRecord
100
AcDbLinetypeTableRecord
  2
SXF_二点鎖線
 70
     0
  3
09 chain_double_dash ---- - - ---- - - ----
 72
    65
 73
     6
 40
23.5
 49
12.0
 74
     0
 49
-1.5
 74
     0
 49
3.5
 74
     0
 49
-1.5
 74
     0
 49
3.5
 74
     0
 49
-1.5
 74
     0
  0
LTYPE
  5
AB
330
5
100
AcDbSymbolTableRecord
100
AcDbLinetypeTableRecord
  2
SXF_一点短鎖線
 70
     0
  3
10 dashed_dotted -- . -- . -- . --
 72
    65
 73
     4
 40
9.25
 49
6.0
 74
     0
 49
-1.5
 74
     0
 49
0.25
 74
     0
 49
-1.5
 74
     0
  0
LTYPE
  5
AC
330
5
100
AcDbSymbolTableRecord
100
AcDbLinetypeTableRecord
  2
SXF_一点二短鎖線
 70
     0
  3
11 double-dashed_dotted -- -- . -- --
 72
    65
 73
     6
 40
16.75
 49
6.0
 74
     0
 49
-1.5
 74
     0
 49
6.0
 74
     0
 49
-1.5
 74
     0
 49
0.25
 74
     0
 49
-1.5
 74
     0
  0
LTYPE
  5
AD
330
5
100
AcDbSymbolTableRecord
100
AcDbLinetypeTableRecord
  2
SXF_二点短鎖線
 70
     0
  3
12 dashed_double_dotted -- . . -- . . --
 72
    65
 73
     6
 40
11.0
 49
6.0
 74
     0
 49
-1.5
 74
     0
 49
0.25
 74
     0
 49
-1.5
 74
     0
 49
0.25
 74
     0
 49
-1.5
 74
     0
  0
LTYPE
  5
AE
330
5
100
AcDbSymbolTableRecord
100
AcDbLinetypeTableRecord
  2
SXF_二点二短鎖線
 70
     0
  3
13 double-dashed_double-dotted -- -- . . -- --
 72
    65
 73
     8
 40
18.5
 49
6.0
 74
     0
 49
-1.5
 74
     0
 49
6.0
 74
     0
 49
-1.5
 74
     0
 49
0.25
 74
     0
 49
-1.5
 74
     0
 49
0.25
 74
     0
 49
-1.5
 74
     0
  0
LTYPE
  5
AF
330
5
100
AcDbSymbolTableRecord
100
AcDbLinetypeTableRecord
  2
SXF_三点短鎖線
 70
     0
  3
14 dashed triplicate-dotted -- . . . -- . . . --
 72
    65
 73
     8
 40
12.75
 49
6.0
 74
     0
 49
-1.5
 74
     0
 49
0.25
 74
     0
 49
-1.5
 74
     0
 49
0.25
 74
     0
 49
-1.5
 74
     0
 49
0.25
 74
     0
 49
-1.5
 74
     0
  0
LTYPE
  5
B0
330
5
100
AcDbSymbolTableRecord
100
AcDbLinetypeTableRecord
  2
SXF_三点二短鎖線
 70
     0
  3
15 double-dashed triplicate-dotted -- -- . . . -- -- 
 72
    65
 73
    10
 40
20.25
 49
6.0
 74
     0
 49
-1.5
 74
     0
 49
6.0
 74
     0
 49
-1.5
 74
     0
 49
0.25
 74
     0
 49
-1.5
 74
     0
 49
0.25
 74
     0
 49
-1.5
 74
     0
 49
0.25
 74
     0
 49
-1.5
 74
     0
  0
ENDTAB
  0
TABLE
  2
LAYER
  5
2
330
0
100
AcDbSymbolTable
 70
     3
  0
LAYER
  5
10
330
2
100
AcDbSymbolTableRecord
100
AcDbLayerTableRecord
  2
0
 70
     0
 62
     7
  6
Continuous
370
    -3
390
F
347
46
  0
LAYER
  5
B1
330
2
100
AcDbSymbolTableRecord
100
AcDbLayerTableRecord
  2
Layer0016
 70
     0
 62
     7
  6
Continuous
370
    -3
390
F
347
46
  0
LAYER
  5
B2
330
2
100
AcDbSymbolTableRecord
100
AcDbLayerTableRecord
  2
ZUWAKU
 70
     0
 62
     7
  6
Continuous
370
    -3
390
F
347
46
  0
ENDTAB
  0
TABLE
  2
STYLE
  5
3
330
0
100
AcDbSymbolTable
 70
     2
  0
STYLE
  5
11
330
3
100
AcDbSymbolTableRecord
100
AcDbTextStyleTableRecord
  2
Standard
 70
     0
 40
0.0
 41
1.0
 50
0.0
 71
     0
 42
0.2
  3
txt.shx
  4
extfont2.shx
  0
STYLE
  5
144
330
3
100
AcDbSymbolTableRecord
100
AcDbTextStyleTableRecord
  2
dcStyle0
 70
     0
 40
0.0
 41
0.5
 50
0.0
 71
     0
 42
0.2
  3
txt.shx
  4
extfont2
  0
ENDTAB
  0
TABLE
  2
VIEW
  5
6
330
0
100
AcDbSymbolTable
 70
     0
  0
ENDTAB
  0
TABLE
  2
UCS
  5
7
330
0
100
AcDbSymbolTable
 70
     0
  0
ENDTAB
  0
TABLE
  2
APPID
  5
9
330
0
100
AcDbSymbolTable
 70
     2
  0
APPID
  5
12
330
9
100
AcDbSymbolTableRecord
100
AcDbRegAppTableRecord
  2
ACAD
 70
     0
  0
APPID
  5
6E
330
9
100
AcDbSymbolTableRecord
100
AcDbRegAppTableRecord
  2
DaFusionOut
 70
     0
  0
ENDTAB
  0
TABLE
  2
DIMSTYLE
  5
A
330
0
100
AcDbSymbolTable
 70
     4
100
AcDbDimStyleTable
  0
DIMSTYLE
105
27
330
A
100
AcDbSymbolTableRecord
100
AcDbDimStyleTableRecord
  2
Standard
 70
     0
178
     0
340
11
  0
DIMSTYLE
105
336
102
{ACAD_REACTORS
330
335
330
339
330
33F
330
346
330
348
330
34A
330
34B
330
34C
330
34D
330
34E
330
355
330
358
330
359
330
35B
330
35C
102
}
330
A
100
AcDbSymbolTableRecord
100
AcDbDimStyleTableRecord
  2
dc_Rotated
 70
     0
 41
3.000001907348633
 42
1.0
 44
1.0
 90
        1
 73
     0
 74
     0
 77
     3
 78
     8
 79
     2
140
4.5
147
1.0
172
     1
173
     1
176
     2
177
     2
271
     2
178
     4
271
     2
274
     4
283
     0
284
     8
288
     1
340
144
343
168
344
168
  0
DIMSTYLE
105
338
102
{ACAD_REACTORS
330
337
330
347
102
}
330
A
100
AcDbSymbolTableRecord
100
AcDbDimStyleTableRecord
  2
dc_Radial06
 70
     0
 41
3.000001907348633
 42
1.0
 44
1.0
 90
        1
 77
     2
 78
     8
 79
     2
140
4.5
147
1.0
173
     1
176
     2
177
     2
271
     2
178
     4
271
     2
274
     4
283
     0
284
     8
288
     1
340
144
343
168
344
168
  0
DIMSTYLE
105
357
102
{ACAD_REACTORS
330
356
330
35A
102
}
330
A
100
AcDbSymbolTableRecord
100
AcDbDimStyleTableRecord
  2
dc_Diam07
 70
     0
 41
3.000001907348633
 42
1.0
 44
1.0
 90
        1
 77
     2
 78
     8
 79
     2
140
4.5
147
1.0
172
     1
173
     1
176
     2
177
     2
271
     2
178
     4
271
     2
274
     4
283
     0
284
     8
288
     1
340
144
343
168
344
168
  0
ENDTAB
  0
TABLE
  2
BLOCK_RECORD
  5
1
330
0
100
AcDbSymbolTable
 70
    46
  0
BLOCK_RECORD
  5
1F
330
1
100
AcDbSymbolTableRecord
100
AcDbBlockTableRecord
  2
*Model_Space
340
22
 70
     0
280
     1
281
     0
  0
BLOCK_RECORD
  5
1B
330
1
100
AcDbSymbolTableRecord
100
AcDbBlockTableRecord
  2
*Paper_Space
340
1E
 70
     0
280
     1
281
     0
  0
BLOCK_RECORD
  5
23
330
1
100
AcDbSymbolTableRecord
100
AcDbBlockTableRecord
  2
*Paper_Space0
340
26
 70
     0
280
     1
281
     0
  0
BLOCK_RECORD
  5
B4
330
1
100
AcDbSymbolTableRecord
100
AcDbBlockTableRecord
  2
DC_GROUP_COM-1195THJ1-00S304A_1
340
0
102
{BLKREFS
331
32E
102
}
 70
     0
280
     1
281
     0
  0
BLOCK_RECORD
  5
B7
330
1
100
AcDbSymbolTableRecord
100
AcDbBlockTableRecord
  2
DC_GROUP_COM-1195THJ1-00S304A_2
340
0
102
{BLKREFS
331
32F
102
}
 70
     0
280
     1
281
     0
  0
BLOCK_RECORD
  5
BA
330
1
100
AcDbSymbolTableRecord
100
AcDbBlockTableRecord
  2
DC_GROUP_COM-1195THJ1-00S304A_3
340
0
102
{BLKREFS
331
330
102
}
 70
     0
280
     1
281
     0
  0
BLOCK_RECORD
  5
BD
330
1
100
AcDbSymbolTableRecord
100
AcDbBlockTableRecord
  2
DC_GROUP_COM-1195THJ1-00S304A_4
340
0
102
{BLKREFS
331
331
102
}
 70
     0
280
     1
281
     0
  0
BLOCK_RECORD
  5
C0
330
1
100
AcDbSymbolTableRecord
100
AcDbBlockTableRecord
  2
DC_GROUP_COM-1195THJ1-00S304A_5
340
0
102
{BLKREFS
331
332
102
}
 70
     0
280
     1
281
     0
  0
BLOCK_RECORD
  5
C3
330
1
100
AcDbSymbolTableRecord
100
AcDbBlockTableRecord
  2
DC_GROUP_COM-1195THJ1-00S304A_6
340
0
102
{BLKREFS
331
333
102
}
 70
     0
280
     1
281
     0
  0
BLOCK_RECORD
  5
C6
330
1
100
AcDbSymbolTableRecord
100
AcDbBlockTableRecord
  2
DC_GROUP_COM-1195THJ1-00S304A_7
340
0
102
{BLKREFS
331
334
102
}
 70
     0
280
     1
281
     0
  0
BLOCK_RECORD
  5
C9
330
1
100
AcDbSymbolTableRecord
100
AcDbBlockTableRecord
  2
*D8
340
0
 70
     0
280
     1
281
     0
  0
BLOCK_RECORD
  5
CC
330
1
100
AcDbSymbolTableRecord
100
AcDbBlockTableRecord
  2
*D9
340
0
 70
     0
280
     1
281
     0
  0
BLOCK_RECORD
  5
CF
330
1
100
AcDbSymbolTableRecord
100
AcDbBlockTableRecord
  2
*D10
340
0
 70
     0
280
     1
281
     0
  0
BLOCK_RECORD
  5
D2
330
1
100
AcDbSymbolTableRecord
100
AcDbBlockTableRecord
  2
DC_GROUP_COM-1195THJ1-00S304A_8
340
0
102
{BLKREFS
331
33A
102
}
 70
     0
280
     1
281
     0
  0
BLOCK_RECORD
  5
D5
330
1
100
AcDbSymbolTableRecord
100
AcDbBlockTableRecord
  2
DC_GROUP_COM-1195THJ1-00S304A_9
340
0
102
{BLKREFS
331
33B
102
}
 70
     0
280
     1
281
     0
  0
BLOCK_RECORD
  5
D8
330
1
100
AcDbSymbolTableRecord
100
AcDbBlockTableRecord
  2
DC_GROUP_COM-1195THJ1-00S304A_10
340
0
102
{BLKREFS
331
33C
102
}
 70
     0
280
     1
281
     0
  0
BLOCK_RECORD
  5
DB
330
1
100
AcDbSymbolTableRecord
100
AcDbBlockTableRecord
  2
DC_GROUP_COM-1195THJ1-00S304A_11
340
0
102
{BLKREFS
331
33D
102
}
 70
     0
280
     1
281
     0
  0
BLOCK_RECORD
  5
DE
330
1
100
AcDbSymbolTableRecord
100
AcDbBlockTableRecord
  2
DC_GROUP_COM-1195THJ1-00S304A_12
340
0
102
{BLKREFS
331
33E
102
}
 70
     0
280
     1
281
     0
  0
BLOCK_RECORD
  5
E1
330
1
100
AcDbSymbolTableRecord
100
AcDbBlockTableRecord
  2
*D16
340
0
 70
     0
280
     1
281
     0
  0
BLOCK_RECORD
  5
E4
330
1
100
AcDbSymbolTableRecord
100
AcDbBlockTableRecord
  2
DC_GROUP_COM-1195THJ1-00S304A_13
340
0
102
{BLKREFS
331
340
102
}
 70
     0
280
     1
281
     0
  0
BLOCK_RECORD
  5
E7
330
1
100
AcDbSymbolTableRecord
100
AcDbBlockTableRecord
  2
DC_GROUP_COM-1195THJ1-00S304A_14
340
0
102
{BLKREFS
331
341
102
}
 70
     0
280
     1
281
     0
  0
BLOCK_RECORD
  5
EA
330
1
100
AcDbSymbolTableRecord
100
AcDbBlockTableRecord
  2
DC_GROUP_COM-1195THJ1-00S304A_15
340
0
102
{BLKREFS
331
342
102
}
 70
     0
280
     1
281
     0
  0
BLOCK_RECORD
  5
ED
330
1
100
AcDbSymbolTableRecord
100
AcDbBlockTableRecord
  2
DC_GROUP_COM-1195THJ1-00S304A_16
340
0
102
{BLKREFS
331
343
102
}
 70
     0
280
     1
281
     0
  0
BLOCK_RECORD
  5
F0
330
1
100
AcDbSymbolTableRecord
100
AcDbBlockTableRecord
  2
DC_GROUP_COM-1195THJ1-00S304A_17
340
0
102
{BLKREFS
331
344
102
}
 70
     0
280
     1
281
     0
  0
BLOCK_RECORD
  5
F3
330
1
100
AcDbSymbolTableRecord
100
AcDbBlockTableRecord
  2
DC_GROUP_COM-1195THJ1-00S304A_18
340
0
102
{BLKREFS
331
345
102
}
 70
     0
280
     1
281
     0
  0
BLOCK_RECORD
  5
F6
330
1
100
AcDbSymbolTableRecord
100
AcDbBlockTableRecord
  2
*D23
340
0
 70
     0
280
     1
281
     0
  0
BLOCK_RECORD
  5
F9
330
1
100
AcDbSymbolTableRecord
100
AcDbBlockTableRecord
  2
*D24
340
0
 70
     0
280
     1
281
     0
  0
BLOCK_RECORD
  5
FC
330
1
100
AcDbSymbolTableRecord
100
AcDbBlockTableRecord
  2
*D25
340
0
 70
     0
280
     1
281
     0
  0
BLOCK_RECORD
  5
FF
330
1
100
AcDbSymbolTableRecord
100
AcDbBlockTableRecord
  2
DC_GROUP_COM-1195THJ1-00S304A_19
340
0
102
{BLKREFS
331
349
102
}
 70
     0
280
     1
281
     0
  0
BLOCK_RECORD
  5
102
330
1
100
AcDbSymbolTableRecord
100
AcDbBlockTableRecord
  2
*D27
340
0
 70
     0
280
     1
281
     0
  0
BLOCK_RECORD
  5
105
330
1
100
AcDbSymbolTableRecord
100
AcDbBlockTableRecord
  2
*D28
340
0
 70
     0
280
     1
281
     0
  0
BLOCK_RECORD
  5
108
330
1
100
AcDbSymbolTableRecord
100
AcDbBlockTableRecord
  2
*D29
340
0
 70
     0
280
     1
281
     0
  0
BLOCK_RECORD
  5
10B
330
1
100
AcDbSymbolTableRecord
100
AcDbBlockTableRecord
  2
*D30
340
0
 70
     0
280
     1
281
     0
  0
BLOCK_RECORD
  5
10E
330
1
100
AcDbSymbolTableRecord
100
AcDbBlockTableRecord
  2
*D31
340
0
 70
     0
280
     1
281
     0
  0
BLOCK_RECORD
  5
111
330
1
100
AcDbSymbolTableRecord
100
AcDbBlockTableRecord
  2
DC_GROUP_COM-1195THJ1-00S304A_20
340
0
102
{BLKREFS
331
34F
102
}
 70
     0
280
     1
281
     0
  0
BLOCK_RECORD
  5
114
330
1
100
AcDbSymbolTableRecord
100
AcDbBlockTableRecord
  2
DC_GROUP_COM-1195THJ1-00S304A_21
340
0
102
{BLKREFS
331
350
102
}
 70
     0
280
     1
281
     0
  0
BLOCK_RECORD
  5
117
330
1
100
AcDbSymbolTableRecord
100
AcDbBlockTableRecord
  2
DC_GROUP_COM-1195THJ1-00S304A_22
340
0
102
{BLKREFS
331
351
102
}
 70
     0
280
     1
281
     0
  0
BLOCK_RECORD
  5
11A
330
1
100
AcDbSymbolTableRecord
100
AcDbBlockTableRecord
  2
DC_GROUP_COM-1195THJ1-00S304A_23
340
0
102
{BLKREFS
331
352
102
}
 70
     0
280
     1
281
     0
  0
BLOCK_RECORD
  5
11D
330
1
100
AcDbSymbolTableRecord
100
AcDbBlockTableRecord
  2
DC_GROUP_COM-1195THJ1-00S304A_24
340
0
102
{BLKREFS
331
353
102
}
 70
     0
280
     1
281
     0
  0
BLOCK_RECORD
  5
120
330
1
100
AcDbSymbolTableRecord
100
AcDbBlockTableRecord
  2
DC_GROUP_COM-1195THJ1-00S304A_25
340
0
102
{BLKREFS
331
354
102
}
 70
     0
280
     1
281
     0
  0
BLOCK_RECORD
  5
123
330
1
100
AcDbSymbolTableRecord
100
AcDbBlockTableRecord
  2
*D38
340
0
 70
     0
280
     1
281
     0
  0
BLOCK_RECORD
  5
126
330
1
100
AcDbSymbolTableRecord
100
AcDbBlockTableRecord
  2
*D39
340
0
 70
     0
280
     1
281
     0
  0
BLOCK_RECORD
  5
129
330
1
100
AcDbSymbolTableRecord
100
AcDbBlockTableRecord
  2
*D40
340
0
 70
     0
280
     1
281
     0
  0
BLOCK_RECORD
  5
12C
330
1
100
AcDbSymbolTableRecord
100
AcDbBlockTableRecord
  2
*D41
340
0
 70
     0
280
     1
281
     0
  0
BLOCK_RECORD
  5
12F
330
1
100
AcDbSymbolTableRecord
100
AcDbBlockTableRecord
  2
*D42
340
0
 70
     0
280
     1
281
     0
  0
BLOCK_RECORD
  5
132
330
1
100
AcDbSymbolTableRecord
100
AcDbBlockTableRecord
  2
*D43
340
0
 70
     0
280
     1
281
     0
  0
BLOCK_RECORD
  5
135
330
1
100
AcDbSymbolTableRecord
100
AcDbBlockTableRecord
  2
*D44
340
0
 70
     0
280
     1
281
     0
  0
BLOCK_RECORD
  5
168
330
1
100
AcDbSymbolTableRecord
100
AcDbBlockTableRecord
  2
_Open30
340
0
102
{BLKREFS
331
16E
331
16F
331
174
331
17B
331
17D
331
192
331
194
331
1A9
331
1AA
331
1AF
331
1B6
331
1B8
331
1BE
331
1BF
331
1C4
331
1C5
331
1CA
331
1CB
331
1D0
331
1D1
331
1D6
331
1D7
331
1F1
331
1F3
331
1F6
331
1FB
331
1FC
331
201
331
202
331
207
331
20D
331
20E
331
213
331
214
102
}
 70
     0
280
     1
281
     0
  0
ENDTAB
  0
ENDSEC
  0
SECTION
  2
BLOCKS
  0
BLOCK
  5
20
330
1F
100
AcDbEntity
  8
0
100
AcDbBlockBegin
  2
*Model_Space
 70
     0
 10
0.0
 20
0.0
 30
0.0
  3
*Model_Space
  1

  0
ENDBLK
  5
21
330
1F
100
AcDbEntity
  8
0
100
AcDbBlockEnd
  0
BLOCK
  5
1C
330
1B
100
AcDbEntity
 67
     1
  8
0
100
AcDbBlockBegin
  2
*Paper_Space
 70
     0
 10
0.0
 20
0.0
 30
0.0
  3
*Paper_Space
  1

  0
ENDBLK
  5
1D
330
1B
100
AcDbEntity
 67
     1
  8
0
100
AcDbBlockEnd
  0
BLOCK
  5
24
330
23
100
AcDbEntity
  8
0
100
AcDbBlockBegin
  2
*Paper_Space0
 70
     0
 10
0.0
 20
0.0
 30
0.0
  3
*Paper_Space0
  1

  0
ENDBLK
  5
25
330
23
100
AcDbEntity
  8
0
100
AcDbBlockEnd
  0
BLOCK
  5
B5
330
B4
100
AcDbEntity
  8
0
100
AcDbBlockBegin
  2
DC_GROUP_COM-1195THJ1-00S304A_1
 70
     0
 10
0.0
 20
0.0
 30
0.0
  3
DC_GROUP_COM-1195THJ1-00S304A_1
  1

  0
LINE
  5
138
330
B4
100
AcDbEntity
  8
ZUWAKU
  6
Continuous
 62
     4
370
    18
100
AcDbLine
 10
100.0
 20
-88.506168
 30
0.0
 11
100.0
 21
-138.5
 31
0.0
  0
LINE
  5
139
330
B4
100
AcDbEntity
  8
ZUWAKU
  6
Continuous
 62
     4
370
    18
100
AcDbLine
 10
200.0
 20
-106.506168
 30
0.0
 11
100.0
 21
-106.506168
 31
0.0
  0
LINE
  5
13A
330
B4
100
AcDbEntity
  8
ZUWAKU
  6
Continuous
 62
     4
370
    18
100
AcDbLine
 10
200.0
 20
-88.506168
 30
0.0
 11
100.0
 21
-88.506168
 31
0.0
  0
LINE
  5
13B
330
B4
100
AcDbEntity
  8
ZUWAKU
  6
Continuous
 62
     7
370
    18
100
AcDbLine
 10
108.0
 20
-106.506168
 30
0.0
 11
108.0
 21
-138.5
 31
0.0
  0
LINE
  5
13C
330
B4
100
AcDbEntity
  8
ZUWAKU
  6
Continuous
 62
     7
370
    18
100
AcDbLine
 10
200.0
 20
-129.5
 30
0.0
 11
100.0
 21
-129.5
 31
0.0
  0
LINE
  5
13D
330
B4
100
AcDbEntity
  8
ZUWAKU
  6
Continuous
 62
     7
370
    18
100
AcDbLine
 10
200.0
 20
-115.5
 30
0.0
 11
100.0
 21
-115.5
 31
0.0
  0
LINE
  5
13E
330
B4
100
AcDbEntity
  8
ZUWAKU
  6
Continuous
 62
     7
370
    18
100
AcDbLine
 10
200.0
 20
-100.506168
 30
0.0
 11
145.0
 21
-100.506168
 31
0.0
  0
LINE
  5
13F
330
B4
100
AcDbEntity
  8
ZUWAKU
  6
Continuous
 62
     7
370
    18
100
AcDbLine
 10
200.0
 20
-94.506168
 30
0.0
 11
100.0
 21
-94.506168
 31
0.0
  0
LINE
  5
140
330
B4
100
AcDbEntity
  8
ZUWAKU
  6
Continuous
 62
     7
370
    18
100
AcDbLine
 10
115.0
 20
-88.506168
 30
0.0
 11
115.0
 21
-106.506168
 31
0.0
  0
LINE
  5
141
330
B4
100
AcDbEntity
  8
ZUWAKU
  6
Continuous
 62
     7
370
    18
100
AcDbLine
 10
130.0
 20
-88.506168
 30
0.0
 11
130.0
 21
-106.506168
 31
0.0
  0
LINE
  5
142
330
B4
100
AcDbEntity
  8
ZUWAKU
  6
Continuous
 62
     7
370
    18
100
AcDbLine
 10
145.0
 20
-88.506168
 30
0.0
 11
145.0
 21
-106.506168
 31
0.0
  0
LINE
  5
143
330
B4
100
AcDbEntity
  8
ZUWAKU
  6
Continuous
 62
     7
370
    18
100
AcDbLine
 10
165.0
 20
-88.506168
 30
0.0
 11
165.0
 21
-106.506168
 31
0.0
  0
TEXT
  5
145
330
B4
100
AcDbEntity
  8
ZUWAKU
 62
     3
100
AcDbText
 10
104.5
 20
-93.50616500000001
 30
0.0
 40
4.0
  1
承認
 41
1.145454545454546
  7
dcStyle0
 72
     5
 11
111.7
 21
-93.50616500000001
 31
0.0
100
AcDbText
  0
TEXT
  5
146
330
B4
100
AcDbEntity
  8
ZUWAKU
 62
     3
100
AcDbText
 10
119.5
 20
-93.50616500000001
 30
0.0
 40
4.0
  1
検図
 41
1.145454545454546
  7
dcStyle0
 72
     5
 11
126.7
 21
-93.50616500000001
 31
0.0
100
AcDbText
  0
TEXT
  5
147
330
B4
100
AcDbEntity
  8
ZUWAKU
 62
     3
100
AcDbText
 10
134.5
 20
-93.50616500000001
 30
0.0
 40
4.0
  1
作成
 41
1.145454545454544
  7
dcStyle0
 72
     5
 11
141.7
 21
-93.50616500000001
 31
0.0
100
AcDbText
  0
TEXT
  5
148
330
B4
100
AcDbEntity
  8
ZUWAKU
 62
     3
100
AcDbText
 10
149.0
 20
-93.50616500000001
 30
0.0
 40
4.0
  1
作成日付
 41
1.095652173913044
  7
dcStyle0
 72
     5
 11
163.4
 21
-93.50616500000001
 31
0.0
100
AcDbText
  0
TEXT
  5
149
330
B4
100
AcDbEntity
  8
ZUWAKU
 62
     3
100
AcDbText
 10
149.0
 20
-99.506168
 30
0.0
 40
4.0
  1
更新日付
 41
1.095652173913044
  7
dcStyle0
 72
     5
 11
163.4
 21
-99.506168
 31
0.0
100
AcDbText
  0
TEXT
  5
14A
330
B4
100
AcDbEntity
  8
ZUWAKU
 62
     3
100
AcDbText
 10
152.0
 20
-105.506168
 30
0.0
 40
4.0
  1
尺度
 41
1.145454545454544
  7
dcStyle0
 72
     5
 11
159.2
 21
-105.506168
 31
0.0
100
AcDbText
  0
TEXT
  5
14B
330
B4
100
AcDbEntity
  8
ZUWAKU
 62
     3
100
AcDbText
 10
100.2073339323979
 20
-113.0
 30
0.0
 40
4.0
  1
名称
 41
1.145454545454546
  7
dcStyle0
 72
     5
 11
107.4073339323979
 21
-113.0
 31
0.0
100
AcDbText
  0
TEXT
  5
14C
330
B4
100
AcDbEntity
  8
ZUWAKU
 62
     3
100
AcDbText
 10
100.2073339323979
 20
-125.0
 30
0.0
 40
4.0
  1
材質
 41
1.145454545454546
  7
dcStyle0
 72
     5
 11
107.4073339323979
 21
-125.0
 31
0.0
100
AcDbText
  0
TEXT
  5
14D
330
B4
100
AcDbEntity
  8
ZUWAKU
 62
     3
100
AcDbText
 10
100.2073339323979
 20
-136.0
 30
0.0
 40
4.0
  1
図番
 41
1.145454545454546
  7
dcStyle0
 72
     5
 11
107.4073339323979
 21
-136.0
 31
0.0
100
AcDbText
  0
ENDBLK
  5
B6
330
B4
100
AcDbEntity
  8
0
100
AcDbBlockEnd
  0
BLOCK
  5
B8
330
B7
100
AcDbEntity
  8
0
100
AcDbBlockBegin
  2
DC_GROUP_COM-1195THJ1-00S304A_2
 70
     0
 10
0.0
 20
0.0
 30
0.0
  3
DC_GROUP_COM-1195THJ1-00S304A_2
  1

  0
CIRCLE
  5
14E
330
B7
100
AcDbEntity
  8
ZUWAKU
  6
Continuous
 62
     2
370
    13
100
AcDbCircle
 10
120.8208420959007
 20
132.0007204150656
 30
0.0
 40
1.0
  0
LINE
  5
14F
330
B7
100
AcDbEntity
  8
ZUWAKU
  6
Continuous
 62
     2
370
    13
100
AcDbLine
 10
120.8208420959007
 20
130.0007204150656
 30
0.0
 11
119.0887912883318
 21
133.0007204150656
 31
0.0
  0
LINE
  5
150
330
B7
100
AcDbEntity
  8
ZUWAKU
  6
Continuous
 62
     2
370
    13
100
AcDbLine
 10
120.8208420959007
 20
130.0007204150656
 30
0.0
 11
124.862293980228
 21
137.0007204150656
 31
0.0
  0
ENDBLK
  5
B9
330
B7
100
AcDbEntity
  8
0
100
AcDbBlockEnd
  0
BLOCK
  5
BB
330
BA
100
AcDbEntity
  8
0
100
AcDbBlockBegin
  2
DC_GROUP_COM-1195THJ1-00S304A_3
 70
     0
 10
0.0
 20
0.0
 30
0.0
  3
DC_GROUP_COM-1195THJ1-00S304A_3
  1

  0
LINE
  5
151
330
BA
100
AcDbEntity
  8
ZUWAKU
  6
Continuous
 62
     2
370
    13
100
AcDbLine
 10
139.0943447877969
 20
130.0007204150656
 30
0.0
 11
137.3622939802281
 21
133.0007204150656
 31
0.0
  0
LINE
  5
152
330
BA
100
AcDbEntity
  8
ZUWAKU
  6
Continuous
 62
     2
370
    13
100
AcDbLine
 10
139.0943447877969
 20
130.0007204150656
 30
0.0
 11
143.1357966721243
 21
137.0007204150656
 31
0.0
  0
LINE
  5
153
330
BA
100
AcDbEntity
  8
ZUWAKU
  6
Continuous
 62
     2
370
    13
100
AcDbLine
 10
143.1357966721243
 20
137.0007204150656
 30
0.0
 11
152.1357966721243
 21
137.0007204150656
 31
0.0
  0
LINE
  5
154
330
BA
100
AcDbEntity
  8
ZUWAKU
  6
Continuous
 62
     2
370
    13
100
AcDbLine
 10
137.3622939802281
 20
133.0007204150656
 30
0.0
 11
140.8263955953658
 21
133.0007204150656
 31
0.0
  0
TEXT
  5
155
330
BA
100
AcDbEntity
  8
ZUWAKU
 62
     7
100
AcDbText
 10
143.1835495326201
 20
132.5007204150656
 30
0.0
 40
3.5
  1
Ra
 41
0.5833333333333334
  7
dcStyle0
 72
     5
 11
146.6835495326201
 21
132.5007204150656
 31
0.0
100
AcDbText
  0
TEXT
  5
156
330
BA
100
AcDbEntity
  8
ZUWAKU
 62
     7
100
AcDbText
 10
146.6835495326201
 20
132.5007204150656
 30
0.0
 40
3.5
  1
25
 41
0.5675675675675677
  7
dcStyle0
 72
     5
 11
150.1835495326201
 21
132.5007204150656
 31
0.0
100
AcDbText
  0
ENDBLK
  5
BC
330
BA
100
AcDbEntity
  8
0
100
AcDbBlockEnd
  0
BLOCK
  5
BE
330
BD
100
AcDbEntity
  8
0
100
AcDbBlockBegin
  2
DC_GROUP_COM-1195THJ1-00S304A_4
 70
     0
 10
0.0
 20
0.0
 30
0.0
  3
DC_GROUP_COM-1195THJ1-00S304A_4
  1

  0
LINE
  5
157
330
BD
100
AcDbEntity
  8
ZUWAKU
  6
Continuous
 62
     2
370
    13
100
AcDbLine
 10
160.8678474796932
 20
130.0007204150656
 30
0.0
 11
159.1357966721243
 21
133.0007204150656
 31
0.0
  0
LINE
  5
158
330
BD
100
AcDbEntity
  8
ZUWAKU
  6
Continuous
 62
     2
370
    13
100
AcDbLine
 10
160.8678474796932
 20
130.0007204150656
 30
0.0
 11
164.9092993640205
 21
137.0007204150656
 31
0.0
  0
LINE
  5
159
330
BD
100
AcDbEntity
  8
ZUWAKU
  6
Continuous
 62
     2
370
    13
100
AcDbLine
 10
164.9092993640205
 20
137.0007204150656
 30
0.0
 11
172.1592993640205
 21
137.0007204150656
 31
0.0
  0
LINE
  5
15A
330
BD
100
AcDbEntity
  8
ZUWAKU
  6
Continuous
 62
     2
370
    13
100
AcDbLine
 10
159.1357966721243
 20
133.0007204150656
 30
0.0
 11
162.5998982872621
 21
133.0007204150656
 31
0.0
  0
TEXT
  5
15B
330
BD
100
AcDbEntity
  8
ZUWAKU
 62
     7
100
AcDbText
 10
163.8488335544831
 20
132.5007204150656
 30
0.0
 40
3.5
  1
Ra6.3
 41
0.603448275862069
  7
dcStyle0
 72
     5
 11
172.5988335544831
 21
132.5007204150656
 31
0.0
100
AcDbText
  0
ENDBLK
  5
BF
330
BD
100
AcDbEntity
  8
0
100
AcDbBlockEnd
  0
BLOCK
  5
C1
330
C0
100
AcDbEntity
  8
0
100
AcDbBlockBegin
  2
DC_GROUP_COM-1195THJ1-00S304A_5
 70
     0
 10
0.0
 20
0.0
 30
0.0
  3
DC_GROUP_COM-1195THJ1-00S304A_5
  1

  0
LINE
  5
15C
330
C0
100
AcDbEntity
  8
ZUWAKU
  6
Continuous
 62
     2
370
    13
100
AcDbLine
 10
180.8913501715894
 20
130.0007204150656
 30
0.0
 11
179.1592993640206
 21
133.0007204150656
 31
0.0
  0
LINE
  5
15D
330
C0
100
AcDbEntity
  8
ZUWAKU
  6
Continuous
 62
     2
370
    13
100
AcDbLine
 10
180.8913501715894
 20
130.0007204150656
 30
0.0
 11
184.9328020559168
 21
137.0007204150656
 31
0.0
  0
LINE
  5
15E
330
C0
100
AcDbEntity
  8
ZUWAKU
  6
Continuous
 62
     2
370
    13
100
AcDbLine
 10
184.9328020559168
 20
137.0007204150656
 30
0.0
 11
192.1828020559168
 21
137.0007204150656
 31
0.0
  0
LINE
  5
15F
330
C0
100
AcDbEntity
  8
ZUWAKU
  6
Continuous
 62
     2
370
    13
100
AcDbLine
 10
179.1592993640206
 20
133.0007204150656
 30
0.0
 11
182.6234009791583
 21
133.0007204150656
 31
0.0
  0
TEXT
  5
160
330
C0
100
AcDbEntity
  8
ZUWAKU
 62
     7
100
AcDbText
 10
183.8723362463794
 20
132.5007204150656
 30
0.0
 40
3.5
  1
Ra1.6
 41
0.603448275862069
  7
dcStyle0
 72
     5
 11
192.6223362463794
 21
132.5007204150656
 31
0.0
100
AcDbText
  0
ENDBLK
  5
C2
330
C0
100
AcDbEntity
  8
0
100
AcDbBlockEnd
  0
BLOCK
  5
C4
330
C3
100
AcDbEntity
  8
0
100
AcDbBlockBegin
  2
DC_GROUP_COM-1195THJ1-00S304A_6
 70
     0
 10
0.0
 20
0.0
 30
0.0
  3
DC_GROUP_COM-1195THJ1-00S304A_6
  1

  0
LINE
  5
161
330
C3
100
AcDbEntity
  8
0
  6
CENTER
 62
     2
370
    13
100
AcDbLine
 10
21.63782524820027
 20
103.582890599588
 30
0.0
 11
25.83782524820026
 21
103.582890599588
 31
0.0
  0
LINE
  5
162
330
C3
100
AcDbEntity
  8
0
  6
CENTER
 62
     2
370
    13
100
AcDbLine
 10
23.73782524820024
 20
105.6828905995879
 30
0.0
 11
23.73782524820024
 21
105.6036603492326
 31
0.0
  0
ARC
  5
163
330
C3
100
AcDbEntity
  8
0
  6
DASHED2
 62
     4
370
    13
100
AcDbCircle
 10
23.73782524820024
 20
103.582890599588
 30
0.0
 40
1.5
100
AcDbArc
 50
270.0
 51
90.0
  0
ENDBLK
  5
C5
330
C3
100
AcDbEntity
  8
0
100
AcDbBlockEnd
  0
BLOCK
  5
C7
330
C6
100
AcDbEntity
  8
0
100
AcDbBlockBegin
  2
DC_GROUP_COM-1195THJ1-00S304A_7
 70
     0
 10
0.0
 20
0.0
 30
0.0
  3
DC_GROUP_COM-1195THJ1-00S304A_7
  1

  0
LINE
  5
164
330
C6
100
AcDbEntity
  8
0
  6
CENTER
 62
     2
370
    13
100
AcDbLine
 10
21.63782524820027
 20
60.58289059958796
 30
0.0
 11
25.83782524820026
 21
60.58289059958796
 31
0.0
  0
LINE
  5
165
330
C6
100
AcDbEntity
  8
0
  6
CENTER
 62
     2
370
    13
100
AcDbLine
 10
23.73782524820024
 20
58.48289059958795
 30
0.0
 11
23.73782524820024
 21
58.56212084994331
 31
0.0
  0
ARC
  5
166
330
C6
100
AcDbEntity
  8
0
  6
DASHED2
 62
     4
370
    13
100
AcDbCircle
 10
23.73782524820024
 20
60.58289059958796
 30
0.0
 40
1.5
100
AcDbArc
 50
270.0
 51
90.0
  0
ENDBLK
  5
C8
330
C6
100
AcDbEntity
  8
0
100
AcDbBlockEnd
  0
BLOCK
  5
CA
330
C9
100
AcDbEntity
  8
0
100
AcDbBlockBegin
  2
*D8
 70
     1
 10
0.0
 20
0.0
 30
0.0
  3
*D8
  1

  0
LINE
  5
167
330
C9
100
AcDbEntity
  8
0
  6
Continuous
 62
     2
370
    13
100
AcDbLine
 10
3.874870905326134
 20
56.83289059958796
 30
0.0
 11
3.874870905326134
 21
107.332890599588
 31
0.0
  0
INSERT
  5
16E
330
C9
100
AcDbEntity
  8
0
 62
     2
100
AcDbBlockReference
  2
_Open30
 10
3.874870905326134
 20
56.83289059958796
 30
0.0
 41
3.000002807615286
 42
2.999989368223643
 50
270.0
  0
INSERT
  5
16F
330
C9
100
AcDbEntity
  8
0
 62
     2
100
AcDbBlockReference
  2
_Open30
 10
3.874870905326134
 20
107.332890599588
 30
0.0
 41
3.000002807615286
 42
2.999989368223643
 50
90.0
  0
LINE
  5
170
330
C9
100
AcDbEntity
  8
0
  6
Continuous
 62
     2
370
    13
100
AcDbLine
 10
22.73782524820024
 20
56.83289059958796
 30
0.0
 11
2.874870905326134
 21
56.83289059958796
 31
0.0
  0
LINE
  5
171
330
C9
100
AcDbEntity
  8
0
  6
Continuous
 62
     2
370
    13
100
AcDbLine
 10
22.73782524820024
 20
107.332890599588
 30
0.0
 11
2.874870905326134
 21
107.332890599588
 31
0.0
  0
MTEXT
  5
172
330
C9
100
AcDbEntity
  8
0
 62
     4
100
AcDbMText
 10
2.874870905326134
 20
82.08289059958796
 30
0.0
 40
4.5
 41
0.0
 46
0.0
 71
     8
 72
     1
  1
\T1.00;\W0.5769;φ50.5
  7
dcStyle0
 11
6.123233995736766E-17
 21
1.0
 31
0.0
 73
     1
 44
1.0
  0
ENDBLK
  5
CB
330
C9
100
AcDbEntity
  8
0
100
AcDbBlockEnd
  0
BLOCK
  5
CD
330
CC
100
AcDbEntity
  8
0
100
AcDbBlockBegin
  2
*D9
 70
     1
 10
0.0
 20
0.0
 30
0.0
  3
*D9
  1

  0
LINE
  5
173
330
CC
100
AcDbEntity
  8
0
  6
Continuous
 62
     2
370
    13
100
AcDbLine
 10
28.06041891809762
 20
108.5691186239708
 30
0.0
 11
26.72134264442154
 21
107.1914323968823
 31
0.0
  0
INSERT
  5
174
330
CC
100
AcDbEntity
  8
0
 62
     2
100
AcDbBlockReference
  2
_Open30
 10
26.72134264442154
 20
107.1914323968823
 30
0.0
 41
3.000002807615286
 42
2.999989368223643
 50
225.8142185636271
  0
LINE
  5
175
330
CC
100
AcDbEntity
  8
0
  6
Continuous
 62
     2
370
    13
100
AcDbLine
 10
39.06041891809762
 20
108.5691186239708
 30
0.0
 11
28.06041891809762
 21
108.5691186239708
 31
0.0
  0
MTEXT
  5
176
330
CC
100
AcDbEntity
  8
0
 62
     4
100
AcDbMText
 10
29.06041891809762
 20
109.5691186239708
 30
0.0
 40
4.5
 41
0.0
 46
0.0
 71
     7
 72
     1
  1
\T1.00;\W0.5000;R0.5
  7
dcStyle0
 73
     1
 44
1.0
  0
ENDBLK
  5
CE
330
CC
100
AcDbEntity
  8
0
100
AcDbBlockEnd
  0
BLOCK
  5
D0
330
CF
100
AcDbEntity
  8
0
100
AcDbBlockBegin
  2
*D10
 70
     1
 10
0.0
 20
0.0
 30
0.0
  3
*D10
  1

  0
LINE
  5
177
330
CF
100
AcDbEntity
  8
0
  6
Continuous
 62
     2
370
    13
100
AcDbLine
 10
23.73782524820024
 20
50.0636340733843
 30
0.0
 11
26.73782524820024
 21
50.0636340733843
 31
0.0
  0
LINE
  5
178
330
CF
100
AcDbEntity
  8
0
  6
Continuous
 62
     2
370
    13
100
AcDbLine
 10
23.73782524820024
 20
55.33289059958796
 30
0.0
 11
23.73782524820024
 21
49.0636340733843
 31
0.0
  0
LINE
  5
179
330
CF
100
AcDbEntity
  8
0
  6
Continuous
 62
     2
370
    13
100
AcDbLine
 10
26.73782524820024
 20
56.00462646100565
 30
0.0
 11
26.73782524820024
 21
49.0636340733843
 31
0.0
  0
LINE
  5
17A
330
CF
100
AcDbEntity
  8
0
  6
Continuous
 62
     2
370
    13
100
AcDbLine
 10
16.59004524820023
 20
50.0636340733843
 30
0.0
 11
23.73782524820024
 21
50.0636340733843
 31
0.0
  0
INSERT
  5
17B
330
CF
100
AcDbEntity
  8
0
 62
     2
100
AcDbBlockReference
  2
_Open30
 10
23.73782524820024
 20
50.0636340733843
 30
0.0
 41
3.000002807615286
 42
2.999989368223643
 50
360.0
  0
LINE
  5
17C
330
CF
100
AcDbEntity
  8
0
  6
Continuous
 62
     2
370
    13
100
AcDbLine
 10
31.73782524820024
 20
50.0636340733843
 30
0.0
 11
26.73782524820024
 21
50.0636340733843
 31
0.0
  0
INSERT
  5
17D
330
CF
100
AcDbEntity
  8
0
 62
     2
100
AcDbBlockReference
  2
_Open30
 10
26.73782524820024
 20
50.0636340733843
 30
0.0
 41
3.000002807615286
 42
2.999989368223643
 50
180.0
  0
MTEXT
  5
17E
330
CF
100
AcDbEntity
  8
0
 62
     4
100
AcDbMText
 10
19.84004524820023
 20
51.0636340733843
 30
0.0
 40
4.5
 41
0.0
 46
0.0
 71
     9
 72
     1
  1
\T1.00;\W0.5000;3
  7
dcStyle0
 73
     1
 44
1.0
  0
ENDBLK
  5
D1
330
CF
100
AcDbEntity
  8
0
100
AcDbBlockEnd
  0
BLOCK
  5
D3
330
D2
100
AcDbEntity
  8
0
100
AcDbBlockBegin
  2
DC_GROUP_COM-1195THJ1-00S304A_8
 70
     0
 10
0.0
 20
0.0
 30
0.0
  3
DC_GROUP_COM-1195THJ1-00S304A_8
  1

  0
CIRCLE
  5
17F
330
D2
100
AcDbEntity
  8
0
  6
Continuous
 62
     3
370
    13
100
AcDbCircle
 10
78.73782524820024
 20
82.08289059958796
 30
0.0
 40
25.25
  0
LINE
  5
180
330
D2
100
AcDbEntity
  8
0
  6
CENTER
 62
     2
370
    13
100
AcDbLine
 10
78.73782524820024
 20
109.5394368876823
 30
0.0
 11
78.73782524820024
 21
55.08075177110545
 31
0.0
  0
LINE
  5
181
330
D2
100
AcDbEntity
  8
0
  6
CENTER
 62
     2
370
    13
100
AcDbLine
 10
138.2640097868536
 20
82.08289059958796
 30
0.0
 11
20.51091508308798
 21
82.08289059958796
 31
0.0
  0
ENDBLK
  5
D4
330
D2
100
AcDbEntity
  8
0
100
AcDbBlockEnd
  0
BLOCK
  5
D6
330
D5
100
AcDbEntity
  8
0
100
AcDbBlockBegin
  2
DC_GROUP_COM-1195THJ1-00S304A_9
 70
     0
 10
0.0
 20
0.0
 30
0.0
  3
DC_GROUP_COM-1195THJ1-00S304A_9
  1

  0
LINE
  5
182
330
D5
100
AcDbEntity
  8
0
  6
CENTER
 62
     2
370
    13
100
AcDbLine
 10
135.8378252482002
 20
103.582890599588
 30
0.0
 11
131.6378252482002
 21
103.582890599588
 31
0.0
  0
LINE
  5
183
330
D5
100
AcDbEntity
  8
0
  6
CENTER
 62
     2
370
    13
100
AcDbLine
 10
133.7378252482002
 20
105.6828905995879
 30
0.0
 11
133.7378252482002
 21
105.6036603492326
 31
0.0
  0
ARC
  5
184
330
D5
100
AcDbEntity
  8
0
  6
DASHED2
 62
     4
370
    13
100
AcDbCircle
 10
133.7378252482002
 20
103.582890599588
 30
0.0
 40
1.5
100
AcDbArc
 50
90.0
 51
270.0
  0
ENDBLK
  5
D7
330
D5
100
AcDbEntity
  8
0
100
AcDbBlockEnd
  0
BLOCK
  5
D9
330
D8
100
AcDbEntity
  8
0
100
AcDbBlockBegin
  2
DC_GROUP_COM-1195THJ1-00S304A_10
 70
     0
 10
0.0
 20
0.0
 30
0.0
  3
DC_GROUP_COM-1195THJ1-00S304A_10
  1

  0
LINE
  5
185
330
D8
100
AcDbEntity
  8
0
  6
CENTER
 62
     2
370
    13
100
AcDbLine
 10
135.8378252482002
 20
60.58289059958796
 30
0.0
 11
131.6378252482002
 21
60.58289059958796
 31
0.0
  0
LINE
  5
186
330
D8
100
AcDbEntity
  8
0
  6
CENTER
 62
     2
370
    13
100
AcDbLine
 10
133.7378252482002
 20
58.48289059958795
 30
0.0
 11
133.7378252482002
 21
58.56212084994331
 31
0.0
  0
ARC
  5
187
330
D8
100
AcDbEntity
  8
0
  6
DASHED2
 62
     4
370
    13
100
AcDbCircle
 10
133.7378252482002
 20
60.58289059958796
 30
0.0
 40
1.5
100
AcDbArc
 50
90.0
 51
270.0
  0
ENDBLK
  5
DA
330
D8
100
AcDbEntity
  8
0
100
AcDbBlockEnd
  0
BLOCK
  5
DC
330
DB
100
AcDbEntity
  8
0
100
AcDbBlockBegin
  2
DC_GROUP_COM-1195THJ1-00S304A_11
 70
     0
 10
0.0
 20
0.0
 30
0.0
  3
DC_GROUP_COM-1195THJ1-00S304A_11
  1

  0
LINE
  5
188
330
DB
100
AcDbEntity
  8
0
  6
CENTER
 62
     2
370
    13
100
AcDbLine
 10
21.63782524820027
 20
-10.01209476309231
 30
0.0
 11
25.83782524820026
 21
-10.01209476309231
 31
0.0
  0
LINE
  5
189
330
DB
100
AcDbEntity
  8
0
  6
CENTER
 62
     2
370
    13
100
AcDbLine
 10
23.73782524820024
 20
-7.912094763092316
 30
0.0
 11
23.73782524820024
 21
-7.991325013447639
 31
0.0
  0
ARC
  5
18A
330
DB
100
AcDbEntity
  8
0
  6
DASHED2
 62
     4
370
    13
100
AcDbCircle
 10
23.73782524820024
 20
-10.01209476309231
 30
0.0
 40
1.5
100
AcDbArc
 50
270.0
 51
90.0
  0
ENDBLK
  5
DD
330
DB
100
AcDbEntity
  8
0
100
AcDbBlockEnd
  0
BLOCK
  5
DF
330
DE
100
AcDbEntity
  8
0
100
AcDbBlockBegin
  2
DC_GROUP_COM-1195THJ1-00S304A_12
 70
     0
 10
0.0
 20
0.0
 30
0.0
  3
DC_GROUP_COM-1195THJ1-00S304A_12
  1

  0
LINE
  5
18B
330
DE
100
AcDbEntity
  8
0
  6
CENTER
 62
     2
370
    13
100
AcDbLine
 10
21.63782524820027
 20
-53.01209476309231
 30
0.0
 11
25.83782524820026
 21
-53.01209476309231
 31
0.0
  0
LINE
  5
18C
330
DE
100
AcDbEntity
  8
0
  6
CENTER
 62
     2
370
    13
100
AcDbLine
 10
23.73782524820024
 20
-55.11209476309232
 30
0.0
 11
23.73782524820024
 21
-55.03286451273696
 31
0.0
  0
ARC
  5
18D
330
DE
100
AcDbEntity
  8
0
  6
DASHED2
 62
     4
370
    13
100
AcDbCircle
 10
23.73782524820024
 20
-53.01209476309231
 30
0.0
 40
1.5
100
AcDbArc
 50
270.0
 51
90.0
  0
ENDBLK
  5
E0
330
DE
100
AcDbEntity
  8
0
100
AcDbBlockEnd
  0
BLOCK
  5
E2
330
E1
100
AcDbEntity
  8
0
100
AcDbBlockBegin
  2
*D16
 70
     1
 10
0.0
 20
0.0
 30
0.0
  3
*D16
  1

  0
LINE
  5
18E
330
E1
100
AcDbEntity
  8
0
  6
Continuous
 62
     2
370
    13
100
AcDbLine
 10
23.73782524820024
 20
-63.53135128929596
 30
0.0
 11
26.73782524820024
 21
-63.53135128929596
 31
0.0
  0
LINE
  5
18F
330
E1
100
AcDbEntity
  8
0
  6
Continuous
 62
     2
370
    13
100
AcDbLine
 10
23.73782524820024
 20
-58.2620947630923
 30
0.0
 11
23.73782524820024
 21
-64.53135128929597
 31
0.0
  0
LINE
  5
190
330
E1
100
AcDbEntity
  8
0
  6
Continuous
 62
     2
370
    13
100
AcDbLine
 10
26.73782524820024
 20
-57.59035890167463
 30
0.0
 11
26.73782524820024
 21
-64.53135128929597
 31
0.0
  0
LINE
  5
191
330
E1
100
AcDbEntity
  8
0
  6
Continuous
 62
     2
370
    13
100
AcDbLine
 10
16.59004524820023
 20
-63.53135128929596
 30
0.0
 11
23.73782524820024
 21
-63.53135128929596
 31
0.0
  0
INSERT
  5
192
330
E1
100
AcDbEntity
  8
0
 62
     2
100
AcDbBlockReference
  2
_Open30
 10
23.73782524820024
 20
-63.53135128929596
 30
0.0
 41
3.000002807615286
 42
2.999989368223643
 50
360.0
  0
LINE
  5
193
330
E1
100
AcDbEntity
  8
0
  6
Continuous
 62
     2
370
    13
100
AcDbLine
 10
31.73782524820024
 20
-63.53135128929596
 30
0.0
 11
26.73782524820024
 21
-63.53135128929596
 31
0.0
  0
INSERT
  5
194
330
E1
100
AcDbEntity
  8
0
 62
     2
100
AcDbBlockReference
  2
_Open30
 10
26.73782524820024
 20
-63.53135128929596
 30
0.0
 41
3.000002807615286
 42
2.999989368223643
 50
180.0
  0
MTEXT
  5
195
330
E1
100
AcDbEntity
  8
0
 62
     4
100
AcDbMText
 10
19.84004524820023
 20
-62.53135128929596
 30
0.0
 40
4.5
 41
0.0
 46
0.0
 71
     9
 72
     1
  1
\T1.00;\W0.5000;3
  7
dcStyle0
 73
     1
 44
1.0
  0
ENDBLK
  5
E3
330
E1
100
AcDbEntity
  8
0
100
AcDbBlockEnd
  0
BLOCK
  5
E5
330
E4
100
AcDbEntity
  8
0
100
AcDbBlockBegin
  2
DC_GROUP_COM-1195THJ1-00S304A_13
 70
     0
 10
0.0
 20
0.0
 30
0.0
  3
DC_GROUP_COM-1195THJ1-00S304A_13
  1

  0
LINE
  5
196
330
E4
100
AcDbEntity
  8
0
  6
CENTER
 62
     2
370
    13
100
AcDbLine
 10
135.8378252482002
 20
-10.01209476309231
 30
0.0
 11
131.6378252482002
 21
-10.01209476309231
 31
0.0
  0
LINE
  5
197
330
E4
100
AcDbEntity
  8
0
  6
CENTER
 62
     2
370
    13
100
AcDbLine
 10
133.7378252482002
 20
-7.912094763092316
 30
0.0
 11
133.7378252482002
 21
-7.991325013447639
 31
0.0
  0
ARC
  5
198
330
E4
100
AcDbEntity
  8
0
  6
DASHED2
 62
     4
370
    13
100
AcDbCircle
 10
133.7378252482002
 20
-10.01209476309231
 30
0.0
 40
1.5
100
AcDbArc
 50
90.0
 51
270.0
  0
ENDBLK
  5
E6
330
E4
100
AcDbEntity
  8
0
100
AcDbBlockEnd
  0
BLOCK
  5
E8
330
E7
100
AcDbEntity
  8
0
100
AcDbBlockBegin
  2
DC_GROUP_COM-1195THJ1-00S304A_14
 70
     0
 10
0.0
 20
0.0
 30
0.0
  3
DC_GROUP_COM-1195THJ1-00S304A_14
  1

  0
LINE
  5
199
330
E7
100
AcDbEntity
  8
0
  6
CENTER
 62
     2
370
    13
100
AcDbLine
 10
135.8378252482002
 20
-53.01209476309231
 30
0.0
 11
131.6378252482002
 21
-53.01209476309231
 31
0.0
  0
LINE
  5
19A
330
E7
100
AcDbEntity
  8
0
  6
CENTER
 62
     2
370
    13
100
AcDbLine
 10
133.7378252482002
 20
-55.11209476309232
 30
0.0
 11
133.7378252482002
 21
-55.03286451273696
 31
0.0
  0
ARC
  5
19B
330
E7
100
AcDbEntity
  8
0
  6
DASHED2
 62
     4
370
    13
100
AcDbCircle
 10
133.7378252482002
 20
-53.01209476309231
 30
0.0
 40
1.5
100
AcDbArc
 50
90.0
 51
270.0
  0
ENDBLK
  5
E9
330
E7
100
AcDbEntity
  8
0
100
AcDbBlockEnd
  0
BLOCK
  5
EB
330
EA
100
AcDbEntity
  8
0
100
AcDbBlockBegin
  2
DC_GROUP_COM-1195THJ1-00S304A_15
 70
     0
 10
0.0
 20
0.0
 30
0.0
  3
DC_GROUP_COM-1195THJ1-00S304A_15
  1

  0
LINE
  5
19C
330
EA
100
AcDbEntity
  8
0
  6
CENTER
 62
     2
370
    13
100
AcDbLine
 10
100.2378252482002
 20
24.08790523690765
 30
0.0
 11
100.2378252482002
 21
19.88790523690766
 31
0.0
  0
LINE
  5
19D
330
EA
100
AcDbEntity
  8
0
  6
CENTER
 62
     2
370
    13
100
AcDbLine
 10
102.3378252482002
 20
21.98790523690769
 30
0.0
 11
102.2585949978449
 21
21.98790523690769
 31
0.0
  0
ARC
  5
19E
330
EA
100
AcDbEntity
  8
0
  6
DASHED2
 62
     4
370
    13
100
AcDbCircle
 10
100.2378252482002
 20
21.98790523690769
 30
0.0
 40
1.5
100
AcDbArc
 50
180.0
 51
0.0
  0
ENDBLK
  5
EC
330
EA
100
AcDbEntity
  8
0
100
AcDbBlockEnd
  0
BLOCK
  5
EE
330
ED
100
AcDbEntity
  8
0
100
AcDbBlockBegin
  2
DC_GROUP_COM-1195THJ1-00S304A_16
 70
     0
 10
0.0
 20
0.0
 30
0.0
  3
DC_GROUP_COM-1195THJ1-00S304A_16
  1

  0
LINE
  5
19F
330
ED
100
AcDbEntity
  8
0
  6
CENTER
 62
     2
370
    13
100
AcDbLine
 10
57.23782524820025
 20
24.08790523690765
 30
0.0
 11
57.23782524820025
 21
19.88790523690766
 31
0.0
  0
LINE
  5
1A0
330
ED
100
AcDbEntity
  8
0
  6
CENTER
 62
     2
370
    13
100
AcDbLine
 10
55.13782524820024
 20
21.98790523690769
 30
0.0
 11
55.21705549855559
 21
21.98790523690769
 31
0.0
  0
ARC
  5
1A1
330
ED
100
AcDbEntity
  8
0
  6
DASHED2
 62
     4
370
    13
100
AcDbCircle
 10
57.23782524820025
 20
21.98790523690769
 30
0.0
 40
1.5
100
AcDbArc
 50
180.0
 51
0.0
  0
ENDBLK
  5
EF
330
ED
100
AcDbEntity
  8
0
100
AcDbBlockEnd
  0
BLOCK
  5
F1
330
F0
100
AcDbEntity
  8
0
100
AcDbBlockBegin
  2
DC_GROUP_COM-1195THJ1-00S304A_17
 70
     0
 10
0.0
 20
0.0
 30
0.0
  3
DC_GROUP_COM-1195THJ1-00S304A_17
  1

  0
LINE
  5
1A2
330
F0
100
AcDbEntity
  8
0
  6
CENTER
 62
     2
370
    13
100
AcDbLine
 10
-30.83395328470176
 20
103.582890599588
 30
0.0
 11
-35.03395328470175
 21
103.582890599588
 31
0.0
  0
LINE
  5
1A3
330
F0
100
AcDbEntity
  8
0
  6
CENTER
 62
     2
370
    13
100
AcDbLine
 10
-32.93395328470172
 20
105.6828905995879
 30
0.0
 11
-32.93395328470172
 21
105.6036603492326
 31
0.0
  0
ARC
  5
1A4
330
F0
100
AcDbEntity
  8
0
  6
DASHED2
 62
     4
370
    13
100
AcDbCircle
 10
-32.93395328470172
 20
103.582890599588
 30
0.0
 40
1.5
100
AcDbArc
 50
90.0
 51
270.0
  0
ENDBLK
  5
F2
330
F0
100
AcDbEntity
  8
0
100
AcDbBlockEnd
  0
BLOCK
  5
F4
330
F3
100
AcDbEntity
  8
0
100
AcDbBlockBegin
  2
DC_GROUP_COM-1195THJ1-00S304A_18
 70
     0
 10
0.0
 20
0.0
 30
0.0
  3
DC_GROUP_COM-1195THJ1-00S304A_18
  1

  0
LINE
  5
1A5
330
F3
100
AcDbEntity
  8
0
  6
CENTER
 62
     2
370
    13
100
AcDbLine
 10
-30.83395328470176
 20
60.58289059958796
 30
0.0
 11
-35.03395328470175
 21
60.58289059958796
 31
0.0
  0
LINE
  5
1A6
330
F3
100
AcDbEntity
  8
0
  6
CENTER
 62
     2
370
    13
100
AcDbLine
 10
-32.93395328470172
 20
58.48289059958795
 30
0.0
 11
-32.93395328470172
 21
58.56212084994331
 31
0.0
  0
ARC
  5
1A7
330
F3
100
AcDbEntity
  8
0
  6
DASHED2
 62
     4
370
    13
100
AcDbCircle
 10
-32.93395328470172
 20
60.58289059958796
 30
0.0
 40
1.5
100
AcDbArc
 50
90.0
 51
270.0
  0
ENDBLK
  5
F5
330
F3
100
AcDbEntity
  8
0
100
AcDbBlockEnd
  0
BLOCK
  5
F7
330
F6
100
AcDbEntity
  8
0
100
AcDbBlockBegin
  2
*D23
 70
     1
 10
0.0
 20
0.0
 30
0.0
  3
*D23
  1

  0
LINE
  5
1A8
330
F6
100
AcDbEntity
  8
0
  6
Continuous
 62
     2
370
    13
100
AcDbLine
 10
-13.07099894182763
 20
56.83289059958796
 30
0.0
 11
-13.07099894182763
 21
107.332890599588
 31
0.0
  0
INSERT
  5
1A9
330
F6
100
AcDbEntity
  8
0
 62
     2
100
AcDbBlockReference
  2
_Open30
 10
-13.07099894182763
 20
56.83289059958796
 30
0.0
 41
3.000002807615286
 42
2.999989368223643
 50
270.0
  0
INSERT
  5
1AA
330
F6
100
AcDbEntity
  8
0
 62
     2
100
AcDbBlockReference
  2
_Open30
 10
-13.07099894182763
 20
107.332890599588
 30
0.0
 41
3.000002807615286
 42
2.999989368223643
 50
90.0
  0
LINE
  5
1AB
330
F6
100
AcDbEntity
  8
0
  6
Continuous
 62
     2
370
    13
100
AcDbLine
 10
-31.93395328470172
 20
56.83289059958796
 30
0.0
 11
-12.07099894182763
 21
56.83289059958796
 31
0.0
  0
LINE
  5
1AC
330
F6
100
AcDbEntity
  8
0
  6
Continuous
 62
     2
370
    13
100
AcDbLine
 10
-31.93395328470172
 20
107.332890599588
 30
0.0
 11
-12.07099894182763
 21
107.332890599588
 31
0.0
  0
MTEXT
  5
1AD
330
F6
100
AcDbEntity
  8
0
 62
     4
100
AcDbMText
 10
-14.07099894182763
 20
82.08289059958796
 30
0.0
 40
4.5
 41
0.0
 46
0.0
 71
     8
 72
     1
  1
\T1.00;\W0.5769;φ50.5
  7
dcStyle0
 11
-1.608122649676637E-16
 21
1.0
 31
0.0
 73
     1
 44
1.0
  0
ENDBLK
  5
F8
330
F6
100
AcDbEntity
  8
0
100
AcDbBlockEnd
  0
BLOCK
  5
FA
330
F9
100
AcDbEntity
  8
0
100
AcDbBlockBegin
  2
*D24
 70
     1
 10
0.0
 20
0.0
 30
0.0
  3
*D24
  1

  0
LINE
  5
1AE
330
F9
100
AcDbEntity
  8
0
  6
Continuous
 62
     2
370
    13
100
AcDbLine
 10
-39.38130975574837
 20
110.7676708412493
 30
0.0
 11
-35.90529616448215
 21
107.1914323968823
 31
0.0
  0
INSERT
  5
1AF
330
F9
100
AcDbEntity
  8
0
 62
     2
100
AcDbBlockReference
  2
_Open30
 10
-35.90529616448215
 20
107.1914323968823
 30
0.0
 41
3.000002807615286
 42
2.999989368223643
 50
314.1857814363729
  0
LINE
  5
1B0
330
F9
100
AcDbEntity
  8
0
  6
Continuous
 62
     2
370
    13
100
AcDbLine
 10
-50.38130975574837
 20
110.7676708412493
 30
0.0
 11
-39.38130975574837
 21
110.7676708412493
 31
0.0
  0
MTEXT
  5
1B1
330
F9
100
AcDbEntity
  8
0
 62
     4
100
AcDbMText
 10
-40.38130975574837
 20
111.7676708412493
 30
0.0
 40
4.5
 41
0.0
 46
0.0
 71
     9
 72
     1
  1
\T1.00;\W0.5000;R0.5
  7
dcStyle0
 73
     1
 44
1.0
  0
ENDBLK
  5
FB
330
F9
100
AcDbEntity
  8
0
100
AcDbBlockEnd
  0
BLOCK
  5
FD
330
FC
100
AcDbEntity
  8
0
100
AcDbBlockBegin
  2
*D25
 70
     1
 10
0.0
 20
0.0
 30
0.0
  3
*D25
  1

  0
LINE
  5
1B2
330
FC
100
AcDbEntity
  8
0
  6
Continuous
 62
     2
370
    13
100
AcDbLine
 10
-32.93395328470172
 20
50.0636340733843
 30
0.0
 11
-35.93395328470172
 21
50.0636340733843
 31
0.0
  0
LINE
  5
1B3
330
FC
100
AcDbEntity
  8
0
  6
Continuous
 62
     2
370
    13
100
AcDbLine
 10
-32.93395328470172
 20
55.33289059958796
 30
0.0
 11
-32.93395328470172
 21
49.0636340733843
 31
0.0
  0
LINE
  5
1B4
330
FC
100
AcDbEntity
  8
0
  6
Continuous
 62
     2
370
    13
100
AcDbLine
 10
-35.93395328470172
 20
56.00462646100565
 30
0.0
 11
-35.93395328470172
 21
49.0636340733843
 31
0.0
  0
LINE
  5
1B5
330
FC
100
AcDbEntity
  8
0
  6
Continuous
 62
     2
370
    13
100
AcDbLine
 10
-25.78617328470171
 20
50.0636340733843
 30
0.0
 11
-32.93395328470172
 21
50.0636340733843
 31
0.0
  0
INSERT
  5
1B6
330
FC
100
AcDbEntity
  8
0
 62
     2
100
AcDbBlockReference
  2
_Open30
 10
-32.93395328470172
 20
50.0636340733843
 30
0.0
 41
3.000002807615286
 42
2.999989368223643
 50
180.0
  0
LINE
  5
1B7
330
FC
100
AcDbEntity
  8
0
  6
Continuous
 62
     2
370
    13
100
AcDbLine
 10
-40.93395328470172
 20
50.0636340733843
 30
0.0
 11
-35.93395328470172
 21
50.0636340733843
 31
0.0
  0
INSERT
  5
1B8
330
FC
100
AcDbEntity
  8
0
 62
     2
100
AcDbBlockReference
  2
_Open30
 10
-35.93395328470172
 20
50.0636340733843
 30
0.0
 41
3.000002807615286
 42
2.999989368223643
 50
360.0
  0
MTEXT
  5
1B9
330
FC
100
AcDbEntity
  8
0
 62
     4
100
AcDbMText
 10
-29.03617328470171
 20
51.0636340733843
 30
0.0
 40
4.5
 41
0.0
 46
0.0
 71
     7
 72
     1
  1
\T1.00;\W0.5000;3
  7
dcStyle0
 73
     1
 44
1.0
  0
ENDBLK
  5
FE
330
FC
100
AcDbEntity
  8
0
100
AcDbBlockEnd
  0
BLOCK
  5
100
330
FF
100
AcDbEntity
  8
0
100
AcDbBlockBegin
  2
DC_GROUP_COM-1195THJ1-00S304A_19
 70
     0
 10
0.0
 20
0.0
 30
0.0
  3
DC_GROUP_COM-1195THJ1-00S304A_19
  1

  0
CIRCLE
  5
1BA
330
FF
100
AcDbEntity
  8
0
  6
Continuous
 62
     3
370
    13
100
AcDbCircle
 10
-87.93395328470172
 20
82.08289059958796
 30
0.0
 40
25.25
  0
LINE
  5
1BB
330
FF
100
AcDbEntity
  8
0
  6
CENTER
 62
     2
370
    13
100
AcDbLine
 10
-87.93395328470172
 20
109.5394368876823
 30
0.0
 11
-87.93395328470172
 21
55.08075177110545
 31
0.0
  0
LINE
  5
1BC
330
FF
100
AcDbEntity
  8
0
  6
CENTER
 62
     2
370
    13
100
AcDbLine
 10
-126.2331391672429
 20
82.08289059958793
 30
0.0
 11
-29.70704311958946
 21
82.08289059958796
 31
0.0
  0
ENDBLK
  5
101
330
FF
100
AcDbEntity
  8
0
100
AcDbBlockEnd
  0
BLOCK
  5
103
330
102
100
AcDbEntity
  8
0
100
AcDbBlockBegin
  2
*D27
 70
     1
 10
0.0
 20
0.0
 30
0.0
  3
*D27
  1

  0
LINE
  5
1BD
330
102
100
AcDbEntity
  8
0
  6
Continuous
 62
     2
370
    13
100
AcDbLine
 10
23.73782524820024
 20
45.17201254452056
 30
0.0
 11
133.7378252482002
 21
45.17201254452056
 31
0.0
  0
INSERT
  5
1BE
330
102
100
AcDbEntity
  8
0
 62
     2
100
AcDbBlockReference
  2
_Open30
 10
23.73782524820024
 20
45.17201254452056
 30
0.0
 41
3.000002807615286
 42
2.999989368223643
 50
180.0
  0
INSERT
  5
1BF
330
102
100
AcDbEntity
  8
0
 62
     2
100
AcDbBlockReference
  2
_Open30
 10
133.7378252482002
 20
45.17201254452056
 30
0.0
 41
3.000002807615286
 42
2.999989368223643
 50
360.0
  0
LINE
  5
1C0
330
102
100
AcDbEntity
  8
0
  6
Continuous
 62
     2
370
    13
100
AcDbLine
 10
23.73782524820024
 20
54.33289059958796
 30
0.0
 11
23.73782524820024
 21
44.17201254452056
 31
0.0
  0
LINE
  5
1C1
330
102
100
AcDbEntity
  8
0
  6
Continuous
 62
     2
370
    13
100
AcDbLine
 10
133.7378252482002
 20
56.33289059958796
 30
0.0
 11
133.7378252482002
 21
44.17201254452056
 31
0.0
  0
MTEXT
  5
1C2
330
102
100
AcDbEntity
  8
0
 62
     4
100
AcDbMText
 10
78.73782524820024
 20
46.17201254452056
 30
0.0
 40
4.5
 41
0.0
 46
0.0
 71
     8
 72
     1
  1
\T1.00;\W0.5000;110
  7
dcStyle0
 73
     1
 44
1.0
  0
ENDBLK
  5
104
330
102
100
AcDbEntity
  8
0
100
AcDbBlockEnd
  0
BLOCK
  5
106
330
105
100
AcDbEntity
  8
0
100
AcDbBlockBegin
  2
*D28
 70
     1
 10
0.0
 20
0.0
 30
0.0
  3
*D28
  1

  0
LINE
  5
1C3
330
105
100
AcDbEntity
  8
0
  6
Continuous
 62
     2
370
    13
100
AcDbLine
 10
23.73782524820024
 20
114.8623218403747
 30
0.0
 11
78.73782524820024
 21
114.8623218403747
 31
0.0
  0
INSERT
  5
1C4
330
105
100
AcDbEntity
  8
0
 62
     2
100
AcDbBlockReference
  2
_Open30
 10
23.73782524820024
 20
114.8623218403747
 30
0.0
 41
3.000002807615286
 42
2.999989368223643
 50
180.0
  0
INSERT
  5
1C5
330
105
100
AcDbEntity
  8
0
 62
     2
100
AcDbBlockReference
  2
_Open30
 10
78.73782524820024
 20
114.8623218403747
 30
0.0
 41
3.000002807615286
 42
2.999989368223643
 50
360.0
  0
LINE
  5
1C6
330
105
100
AcDbEntity
  8
0
  6
Continuous
 62
     2
370
    13
100
AcDbLine
 10
23.73782524820024
 20
107.832890599588
 30
0.0
 11
23.73782524820024
 21
115.8623218403747
 31
0.0
  0
LINE
  5
1C7
330
105
100
AcDbEntity
  8
0
  6
Continuous
 62
     2
370
    13
100
AcDbLine
 10
78.73782524820024
 20
110.5394368876823
 30
0.0
 11
78.73782524820024
 21
115.8623218403747
 31
0.0
  0
MTEXT
  5
1C8
330
105
100
AcDbEntity
  8
0
 62
     4
100
AcDbMText
 10
51.23782524820024
 20
115.8623218403747
 30
0.0
 40
4.5
 41
0.0
 46
0.0
 71
     8
 72
     1
  1
\T1.00;\W0.5000;55
  7
dcStyle0
 73
     1
 44
1.0
  0
ENDBLK
  5
107
330
105
100
AcDbEntity
  8
0
100
AcDbBlockEnd
  0
BLOCK
  5
109
330
108
100
AcDbEntity
  8
0
100
AcDbBlockBegin
  2
*D29
 70
     1
 10
0.0
 20
0.0
 30
0.0
  3
*D29
  1

  0
LINE
  5
1C9
330
108
100
AcDbEntity
  8
0
  6
Continuous
 62
     2
370
    13
100
AcDbLine
 10
78.73782524820024
 20
114.8623218403747
 30
0.0
 11
133.7378252482002
 21
114.8623218403747
 31
0.0
  0
INSERT
  5
1CA
330
108
100
AcDbEntity
  8
0
 62
     2
100
AcDbBlockReference
  2
_Open30
 10
78.73782524820024
 20
114.8623218403747
 30
0.0
 41
3.000002807615286
 42
2.999989368223643
 50
180.0
  0
INSERT
  5
1CB
330
108
100
AcDbEntity
  8
0
 62
     2
100
AcDbBlockReference
  2
_Open30
 10
133.7378252482002
 20
114.8623218403747
 30
0.0
 41
3.000002807615286
 42
2.999989368223643
 50
360.0
  0
LINE
  5
1CC
330
108
100
AcDbEntity
  8
0
  6
Continuous
 62
     2
370
    13
100
AcDbLine
 10
78.73782524820024
 20
110.5394368876823
 30
0.0
 11
78.73782524820024
 21
115.8623218403747
 31
0.0
  0
LINE
  5
1CD
330
108
100
AcDbEntity
  8
0
  6
Continuous
 62
     2
370
    13
100
AcDbLine
 10
133.7378252482002
 20
107.832890599588
 30
0.0
 11
133.7378252482002
 21
115.8623218403747
 31
0.0
  0
MTEXT
  5
1CE
330
108
100
AcDbEntity
  8
0
 62
     4
100
AcDbMText
 10
106.2378252482002
 20
115.8623218403747
 30
0.0
 40
4.5
 41
0.0
 46
0.0
 71
     8
 72
     1
  1
\T1.00;\W0.5000;55
  7
dcStyle0
 73
     1
 44
1.0
  0
ENDBLK
  5
10A
330
108
100
AcDbEntity
  8
0
100
AcDbBlockEnd
  0
BLOCK
  5
10C
330
10B
100
AcDbEntity
  8
0
100
AcDbBlockBegin
  2
*D30
 70
     1
 10
0.0
 20
0.0
 30
0.0
  3
*D30
  1

  0
LINE
  5
1CF
330
10B
100
AcDbEntity
  8
0
  6
Continuous
 62
     2
370
    13
100
AcDbLine
 10
148.4413965087282
 20
-31.51209476309231
 30
0.0
 11
148.4413965087282
 21
21.98790523690769
 31
0.0
  0
INSERT
  5
1D0
330
10B
100
AcDbEntity
  8
0
 62
     2
100
AcDbBlockReference
  2
_Open30
 10
148.4413965087282
 20
-31.51209476309231
 30
0.0
 41
3.000002807615286
 42
2.999989368223643
 50
270.0
  0
INSERT
  5
1D1
330
10B
100
AcDbEntity
  8
0
 62
     2
100
AcDbBlockReference
  2
_Open30
 10
148.4413965087282
 20
21.98790523690769
 30
0.0
 41
3.000002807615286
 42
2.999989368223643
 50
90.0
  0
LINE
  5
1D2
330
10B
100
AcDbEntity
  8
0
  6
Continuous
 62
     2
370
    13
100
AcDbLine
 10
136.9984063630914
 20
-31.51209476309231
 30
0.0
 11
149.4413965087282
 21
-31.51209476309231
 31
0.0
  0
LINE
  5
1D3
330
10B
100
AcDbEntity
  8
0
  6
Continuous
 62
     2
370
    13
100
AcDbLine
 10
104.4878252482002
 20
21.98790523690769
 30
0.0
 11
149.4413965087282
 21
21.98790523690769
 31
0.0
  0
MTEXT
  5
1D4
330
10B
100
AcDbEntity
  8
0
 62
     4
100
AcDbMText
 10
147.4413965087282
 20
-4.762094763092311
 30
0.0
 40
4.5
 41
0.0
 46
0.0
 71
     8
 72
     1
  1
\T1.00;\W0.5000;53.5
  7
dcStyle0
 11
6.123233995736766E-17
 21
1.0
 31
0.0
 73
     1
 44
1.0
  0
ENDBLK
  5
10D
330
10B
100
AcDbEntity
  8
0
100
AcDbBlockEnd
  0
BLOCK
  5
10F
330
10E
100
AcDbEntity
  8
0
100
AcDbBlockBegin
  2
*D31
 70
     1
 10
0.0
 20
0.0
 30
0.0
  3
*D31
  1

  0
LINE
  5
1D5
330
10E
100
AcDbEntity
  8
0
  6
Continuous
 62
     2
370
    13
100
AcDbLine
 10
159.6134663341646
 20
-56.7620947630923
 30
0.0
 11
159.6134663341646
 21
21.98790523690769
 31
0.0
  0
INSERT
  5
1D6
330
10E
100
AcDbEntity
  8
0
 62
     2
100
AcDbBlockReference
  2
_Open30
 10
159.6134663341646
 20
-56.7620947630923
 30
0.0
 41
3.000002807615286
 42
2.999989368223643
 50
270.0
  0
INSERT
  5
1D7
330
10E
100
AcDbEntity
  8
0
 62
     2
100
AcDbBlockReference
  2
_Open30
 10
159.6134663341646
 20
21.98790523690769
 30
0.0
 41
3.000002807615286
 42
2.999989368223643
 50
90.0
  0
LINE
  5
1D8
330
10E
100
AcDbEntity
  8
0
  6
Continuous
 62
     2
370
    13
100
AcDbLine
 10
134.2378252482002
 20
-56.7620947630923
 30
0.0
 11
160.6134663341646
 21
-56.7620947630923
 31
0.0
  0
LINE
  5
1D9
330
10E
100
AcDbEntity
  8
0
  6
Continuous
 62
     2
370
    13
100
AcDbLine
 10
105.4878252482002
 20
21.98790523690769
 30
0.0
 11
160.6134663341646
 21
21.98790523690769
 31
0.0
  0
MTEXT
  5
1DA
330
10E
100
AcDbEntity
  8
0
 62
     4
100
AcDbMText
 10
158.6134663341646
 20
-17.38709476309231
 30
0.0
 40
4.5
 41
0.0
 46
0.0
 71
     8
 72
     1
  1
\T1.00;\W0.5000;78.75
  7
dcStyle0
 11
6.123233995736766E-17
 21
1.0
 31
0.0
 73
     1
 44
1.0
  0
ENDBLK
  5
110
330
10E
100
AcDbEntity
  8
0
100
AcDbBlockEnd
  0
BLOCK
  5
112
330
111
100
AcDbEntity
  8
0
100
AcDbBlockBegin
  2
DC_GROUP_COM-1195THJ1-00S304A_20
 70
     0
 10
0.0
 20
0.0
 30
0.0
  3
DC_GROUP_COM-1195THJ1-00S304A_20
  1

  0
LINE
  5
1DB
330
111
100
AcDbEntity
  8
0
  6
CENTER
 62
     2
370
    13
100
AcDbLine
 10
-160.3147932056651
 20
-10.01209476309231
 30
0.0
 11
-156.1147932056651
 21
-10.01209476309231
 31
0.0
  0
LINE
  5
1DC
330
111
100
AcDbEntity
  8
0
  6
CENTER
 62
     2
370
    13
100
AcDbLine
 10
-158.2147932056651
 20
-7.912094763092316
 30
0.0
 11
-158.2147932056651
 21
-7.991325013447639
 31
0.0
  0
ARC
  5
1DD
330
111
100
AcDbEntity
  8
0
  6
Continuous
 62
     3
370
    18
100
AcDbCircle
 10
-158.2147932056651
 20
-10.01209476309231
 30
0.0
 40
1.5
100
AcDbArc
 50
270.0
 51
90.0
  0
ENDBLK
  5
113
330
111
100
AcDbEntity
  8
0
100
AcDbBlockEnd
  0
BLOCK
  5
115
330
114
100
AcDbEntity
  8
0
100
AcDbBlockBegin
  2
DC_GROUP_COM-1195THJ1-00S304A_21
 70
     0
 10
0.0
 20
0.0
 30
0.0
  3
DC_GROUP_COM-1195THJ1-00S304A_21
  1

  0
LINE
  5
1DE
330
114
100
AcDbEntity
  8
0
  6
CENTER
 62
     2
370
    13
100
AcDbLine
 10
-160.3147932056651
 20
-53.01209476309231
 30
0.0
 11
-156.1147932056651
 21
-53.01209476309231
 31
0.0
  0
LINE
  5
1DF
330
114
100
AcDbEntity
  8
0
  6
CENTER
 62
     2
370
    13
100
AcDbLine
 10
-158.2147932056651
 20
-55.11209476309232
 30
0.0
 11
-158.2147932056651
 21
-55.03286451273696
 31
0.0
  0
ARC
  5
1E0
330
114
100
AcDbEntity
  8
0
  6
Continuous
 62
     3
370
    18
100
AcDbCircle
 10
-158.2147932056651
 20
-53.01209476309231
 30
0.0
 40
1.5
100
AcDbArc
 50
270.0
 51
90.0
  0
ENDBLK
  5
116
330
114
100
AcDbEntity
  8
0
100
AcDbBlockEnd
  0
BLOCK
  5
118
330
117
100
AcDbEntity
  8
0
100
AcDbBlockBegin
  2
DC_GROUP_COM-1195THJ1-00S304A_22
 70
     0
 10
0.0
 20
0.0
 30
0.0
  3
DC_GROUP_COM-1195THJ1-00S304A_22
  1

  0
LINE
  5
1E1
330
117
100
AcDbEntity
  8
0
  6
CENTER
 62
     2
370
    13
100
AcDbLine
 10
-46.11479320566514
 20
-10.01209476309231
 30
0.0
 11
-50.31479320566513
 21
-10.01209476309231
 31
0.0
  0
LINE
  5
1E2
330
117
100
AcDbEntity
  8
0
  6
CENTER
 62
     2
370
    13
100
AcDbLine
 10
-48.2147932056651
 20
-7.912094763092316
 30
0.0
 11
-48.2147932056651
 21
-7.991325013447639
 31
0.0
  0
ARC
  5
1E3
330
117
100
AcDbEntity
  8
0
  6
Continuous
 62
     3
370
    18
100
AcDbCircle
 10
-48.2147932056651
 20
-10.01209476309231
 30
0.0
 40
1.5
100
AcDbArc
 50
90.0
 51
270.0
  0
ENDBLK
  5
119
330
117
100
AcDbEntity
  8
0
100
AcDbBlockEnd
  0
BLOCK
  5
11B
330
11A
100
AcDbEntity
  8
0
100
AcDbBlockBegin
  2
DC_GROUP_COM-1195THJ1-00S304A_23
 70
     0
 10
0.0
 20
0.0
 30
0.0
  3
DC_GROUP_COM-1195THJ1-00S304A_23
  1

  0
LINE
  5
1E4
330
11A
100
AcDbEntity
  8
0
  6
CENTER
 62
     2
370
    13
100
AcDbLine
 10
-46.11479320566514
 20
-53.01209476309231
 30
0.0
 11
-50.31479320566513
 21
-53.01209476309231
 31
0.0
  0
LINE
  5
1E5
330
11A
100
AcDbEntity
  8
0
  6
CENTER
 62
     2
370
    13
100
AcDbLine
 10
-48.2147932056651
 20
-55.11209476309232
 30
0.0
 11
-48.2147932056651
 21
-55.03286451273696
 31
0.0
  0
ARC
  5
1E6
330
11A
100
AcDbEntity
  8
0
  6
Continuous
 62
     3
370
    18
100
AcDbCircle
 10
-48.2147932056651
 20
-53.01209476309231
 30
0.0
 40
1.5
100
AcDbArc
 50
90.0
 51
270.0
  0
ENDBLK
  5
11C
330
11A
100
AcDbEntity
  8
0
100
AcDbBlockEnd
  0
BLOCK
  5
11E
330
11D
100
AcDbEntity
  8
0
100
AcDbBlockBegin
  2
DC_GROUP_COM-1195THJ1-00S304A_24
 70
     0
 10
0.0
 20
0.0
 30
0.0
  3
DC_GROUP_COM-1195THJ1-00S304A_24
  1

  0
LINE
  5
1E7
330
11D
100
AcDbEntity
  8
0
  6
CENTER
 62
     2
370
    13
100
AcDbLine
 10
-81.7147932056651
 20
24.08790523690764
 30
0.0
 11
-81.7147932056651
 21
19.88790523690765
 31
0.0
  0
LINE
  5
1E8
330
11D
100
AcDbEntity
  8
0
  6
CENTER
 62
     2
370
    13
100
AcDbLine
 10
-79.61479320566511
 20
21.98790523690768
 30
0.0
 11
-79.69402345602043
 21
21.98790523690768
 31
0.0
  0
ARC
  5
1E9
330
11D
100
AcDbEntity
  8
0
  6
Continuous
 62
     3
370
    18
100
AcDbCircle
 10
-81.7147932056651
 20
21.98790523690768
 30
0.0
 40
1.5
100
AcDbArc
 50
180.0
 51
0.0
  0
ENDBLK
  5
11F
330
11D
100
AcDbEntity
  8
0
100
AcDbBlockEnd
  0
BLOCK
  5
121
330
120
100
AcDbEntity
  8
0
100
AcDbBlockBegin
  2
DC_GROUP_COM-1195THJ1-00S304A_25
 70
     0
 10
0.0
 20
0.0
 30
0.0
  3
DC_GROUP_COM-1195THJ1-00S304A_25
  1

  0
LINE
  5
1EA
330
120
100
AcDbEntity
  8
0
  6
CENTER
 62
     2
370
    13
100
AcDbLine
 10
-124.7147932056651
 20
24.08790523690764
 30
0.0
 11
-124.7147932056651
 21
19.88790523690765
 31
0.0
  0
LINE
  5
1EB
330
120
100
AcDbEntity
  8
0
  6
CENTER
 62
     2
370
    13
100
AcDbLine
 10
-126.8147932056651
 20
21.98790523690768
 30
0.0
 11
-126.7355629553097
 21
21.98790523690768
 31
0.0
  0
ARC
  5
1EC
330
120
100
AcDbEntity
  8
0
  6
Continuous
 62
     3
370
    18
100
AcDbCircle
 10
-124.7147932056651
 20
21.98790523690768
 30
0.0
 40
1.5
100
AcDbArc
 50
180.0
 51
0.0
  0
ENDBLK
  5
122
330
120
100
AcDbEntity
  8
0
100
AcDbBlockEnd
  0
BLOCK
  5
124
330
123
100
AcDbEntity
  8
0
100
AcDbBlockBegin
  2
*D38
 70
     1
 10
0.0
 20
0.0
 30
0.0
  3
*D38
  1

  0
LINE
  5
1ED
330
123
100
AcDbEntity
  8
0
  6
Continuous
 62
     2
370
    13
100
AcDbLine
 10
-158.2147932056651
 20
-61.37129315759012
 30
0.0
 11
-156.7147932056651
 21
-61.37129315759012
 31
0.0
  0
LINE
  5
1EE
330
123
100
AcDbEntity
  8
0
  6
Continuous
 62
     2
370
    13
100
AcDbLine
 10
-158.2147932056651
 20
-57.26209476309231
 30
0.0
 11
-158.2147932056651
 21
-62.37129315759012
 31
0.0
  0
LINE
  5
1EF
330
123
100
AcDbEntity
  8
0
  6
Continuous
 62
     2
370
    13
100
AcDbLine
 10
-156.7147932056651
 20
-54.01209476309232
 30
0.0
 11
-156.7147932056651
 21
-62.37129315759012
 31
0.0
  0
LINE
  5
1F0
330
123
100
AcDbEntity
  8
0
  6
Continuous
 62
     2
370
    13
100
AcDbLine
 10
-163.2147932056651
 20
-61.37129315759012
 30
0.0
 11
-158.2147932056651
 21
-61.37129315759012
 31
0.0
  0
INSERT
  5
1F1
330
123
100
AcDbEntity
  8
0
 62
     2
100
AcDbBlockReference
  2
_Open30
 10
-158.2147932056651
 20
-61.37129315759012
 30
0.0
 41
3.000002807615286
 42
2.999989368223643
 50
360.0
  0
LINE
  5
1F2
330
123
100
AcDbEntity
  8
0
  6
Continuous
 62
     2
370
    13
100
AcDbLine
 10
-145.0670132056651
 20
-61.37129315759012
 30
0.0
 11
-156.7147932056651
 21
-61.37129315759012
 31
0.0
  0
INSERT
  5
1F3
330
123
100
AcDbEntity
  8
0
 62
     2
100
AcDbBlockReference
  2
_Open30
 10
-156.7147932056651
 20
-61.37129315759012
 30
0.0
 41
3.000002807615286
 42
2.999989368223643
 50
180.0
  0
MTEXT
  5
1F4
330
123
100
AcDbEntity
  8
0
 62
     4
100
AcDbMText
 10
-152.8170132056651
 20
-60.37129315759012
 30
0.0
 40
4.5
 41
0.0
 46
0.0
 71
     7
 72
     1
  1
\T1.00;\W0.5000;1.5
  7
dcStyle0
 73
     1
 44
1.0
  0
ENDBLK
  5
125
330
123
100
AcDbEntity
  8
0
100
AcDbBlockEnd
  0
BLOCK
  5
127
330
126
100
AcDbEntity
  8
0
100
AcDbBlockBegin
  2
*D39
 70
     1
 10
0.0
 20
0.0
 30
0.0
  3
*D39
  1

  0
LINE
  5
1F5
330
126
100
AcDbEntity
  8
0
  6
Continuous
 62
     2
370
    13
100
AcDbLine
 10
-164.4953489942085
 20
-59.48331417150322
 30
0.0
 11
-159.2594776949396
 21
-54.08849353579188
 31
0.0
  0
INSERT
  5
1F6
330
126
100
AcDbEntity
  8
0
 62
     2
100
AcDbBlockReference
  2
_Open30
 10
-159.2594776949396
 20
-54.08849353579188
 30
0.0
 41
3.000002807615286
 42
2.999989368223643
 50
45.85661851719647
  0
LINE
  5
1F7
330
126
100
AcDbEntity
  8
0
  6
Continuous
 62
     2
370
    13
100
AcDbLine
 10
-173.2453489942085
 20
-59.48331417150322
 30
0.0
 11
-164.4953489942085
 21
-59.48331417150322
 31
0.0
  0
LINE
  5
1F8
330
126
100
AcDbEntity
  8
0
  6
Continuous
 62
     2
370
    13
100
AcDbLine
 10
-155.7771960640245
 20
-50.50049762679329
 30
0.0
 11
-159.2594776949396
 21
-54.08849353579188
 31
0.0
  0
MTEXT
  5
1F9
330
126
100
AcDbEntity
  8
0
 62
     4
100
AcDbMText
 10
-165.4953489942085
 20
-58.48331417150322
 30
0.0
 40
4.5
 41
0.0
 46
0.0
 71
     9
 72
     1
  1
\T1.00;\W0.6818;φ3
  7
dcStyle0
 73
     1
 44
1.0
  0
ENDBLK
  5
128
330
126
100
AcDbEntity
  8
0
100
AcDbBlockEnd
  0
BLOCK
  5
12A
330
129
100
AcDbEntity
  8
0
100
AcDbBlockBegin
  2
*D40
 70
     1
 10
0.0
 20
0.0
 30
0.0
  3
*D40
  1

  0
LINE
  5
1FA
330
129
100
AcDbEntity
  8
0
  6
Continuous
 62
     2
370
    13
100
AcDbLine
 10
-172.5869943680586
 20
-42.6120947630923
 30
0.0
 11
-172.5869943680586
 21
-20.41209476309232
 31
0.0
  0
INSERT
  5
1FB
330
129
100
AcDbEntity
  8
0
 62
     2
100
AcDbBlockReference
  2
_Open30
 10
-172.5869943680586
 20
-42.6120947630923
 30
0.0
 41
3.000002807615286
 42
2.999989368223643
 50
270.0
  0
INSERT
  5
1FC
330
129
100
AcDbEntity
  8
0
 62
     2
100
AcDbBlockReference
  2
_Open30
 10
-172.5869943680586
 20
-20.41209476309232
 30
0.0
 41
3.000002807615286
 42
2.999989368223643
 50
90.0
  0
LINE
  5
1FD
330
129
100
AcDbEntity
  8
0
  6
Continuous
 62
     2
370
    13
100
AcDbLine
 10
-159.2147932056651
 20
-42.6120947630923
 30
0.0
 11
-173.5869943680586
 21
-42.6120947630923
 31
0.0
  0
LINE
  5
1FE
330
129
100
AcDbEntity
  8
0
  6
Continuous
 62
     2
370
    13
100
AcDbLine
 10
-159.2147932056651
 20
-20.41209476309232
 30
0.0
 11
-173.5869943680586
 21
-20.41209476309232
 31
0.0
  0
MTEXT
  5
1FF
330
129
100
AcDbEntity
  8
0
 62
     4
100
AcDbMText
 10
-173.5869943680586
 20
-31.51209476309231
 30
0.0
 40
4.5
 41
0.0
 46
0.0
 71
     8
 72
     1
  1
\T1.00;\W0.5769;φ22.2
  7
dcStyle0
 11
6.123233995736766E-17
 21
1.0
 31
0.0
 73
     1
 44
1.0
  0
ENDBLK
  5
12B
330
129
100
AcDbEntity
  8
0
100
AcDbBlockEnd
  0
BLOCK
  5
12D
330
12C
100
AcDbEntity
  8
0
100
AcDbBlockBegin
  2
*D41
 70
     1
 10
0.0
 20
0.0
 30
0.0
  3
*D41
  1

  0
LINE
  5
200
330
12C
100
AcDbEntity
  8
0
  6
Continuous
 62
     2
370
    13
100
AcDbLine
 10
-180.8719094011445
 20
-53.01209476309232
 30
0.0
 11
-180.8719094011445
 21
-10.01209476309234
 31
0.0
  0
INSERT
  5
201
330
12C
100
AcDbEntity
  8
0
 62
     2
100
AcDbBlockReference
  2
_Open30
 10
-180.8719094011445
 20
-53.01209476309232
 30
0.0
 41
3.000002807615286
 42
2.999989368223643
 50
270.0
  0
INSERT
  5
202
330
12C
100
AcDbEntity
  8
0
 62
     2
100
AcDbBlockReference
  2
_Open30
 10
-180.8719094011445
 20
-10.01209476309234
 30
0.0
 41
3.000002807615286
 42
2.999989368223643
 50
90.0
  0
LINE
  5
203
330
12C
100
AcDbEntity
  8
0
  6
Continuous
 62
     2
370
    13
100
AcDbLine
 10
-161.3147932056651
 20
-53.01209476309232
 30
0.0
 11
-181.8719094011445
 21
-53.01209476309232
 31
0.0
  0
LINE
  5
204
330
12C
100
AcDbEntity
  8
0
  6
Continuous
 62
     2
370
    13
100
AcDbLine
 10
-161.3147932056651
 20
-10.01209476309234
 30
0.0
 11
-181.8719094011445
 21
-10.01209476309234
 31
0.0
  0
MTEXT
  5
205
330
12C
100
AcDbEntity
  8
0
 62
     4
100
AcDbMText
 10
-181.8719094011445
 20
-31.51209476309233
 30
0.0
 40
4.5
 41
0.0
 46
0.0
 71
     8
 72
     1
  1
\T1.00;\W0.5000;43
  7
dcStyle0
 11
-1.608122649676637E-16
 21
1.0
 31
0.0
 73
     1
 44
1.0
  0
ENDBLK
  5
12E
330
12C
100
AcDbEntity
  8
0
100
AcDbBlockEnd
  0
BLOCK
  5
130
330
12F
100
AcDbEntity
  8
0
100
AcDbBlockBegin
  2
*D42
 70
     1
 10
0.0
 20
0.0
 30
0.0
  3
*D42
  1

  0
LINE
  5
206
330
12F
100
AcDbEntity
  8
0
  6
Continuous
 62
     2
370
    13
100
AcDbLine
 10
-133.5430333108983
 20
27.86034472882595
 30
0.0
 11
-125.9637203296939
 21
22.81867658864366
 31
0.0
  0
INSERT
  5
207
330
12F
100
AcDbEntity
  8
0
 62
     2
100
AcDbBlockReference
  2
_Open30
 10
-125.9637203296939
 20
22.81867658864366
 30
0.0
 41
3.000002807615286
 42
2.999989368223643
 50
326.3686252506553
  0
LINE
  5
208
330
12F
100
AcDbEntity
  8
0
  6
Continuous
 62
     2
370
    13
100
AcDbLine
 10
-142.2930333108983
 20
27.86034472882595
 30
0.0
 11
-133.5430333108983
 21
27.86034472882595
 31
0.0
  0
LINE
  5
209
330
12F
100
AcDbEntity
  8
0
  6
Continuous
 62
     2
370
    13
100
AcDbLine
 10
-121.8006299162646
 20
20.04943874952371
 30
0.0
 11
-125.9637203296939
 21
22.81867658864366
 31
0.0
  0
ARC
  5
20A
330
12F
100
AcDbEntity
  8
0
  6
Continuous
 62
     2
370
    13
100
AcDbCircle
 10
-124.7147932056651
 20
21.98790523690768
 30
0.0
 40
1.5
100
AcDbArc
 50
112.6785577246755
 51
146.3099324740202
  0
MTEXT
  5
20B
330
12F
100
AcDbEntity
  8
0
 62
     4
100
AcDbMText
 10
-134.5430333108983
 20
28.86034472882595
 30
0.0
 40
4.5
 41
0.0
 46
0.0
 71
     9
 72
     1
  1
\T1.00;\W0.6818;φ3
  7
dcStyle0
 73
     1
 44
1.0
  0
ENDBLK
  5
131
330
12F
100
AcDbEntity
  8
0
100
AcDbBlockEnd
  0
BLOCK
  5
133
330
132
100
AcDbEntity
  8
0
100
AcDbBlockBegin
  2
*D43
 70
     1
 10
0.0
 20
0.0
 30
0.0
  3
*D43
  1

  0
LINE
  5
20C
330
132
100
AcDbEntity
  8
0
  6
Continuous
 62
     2
370
    13
100
AcDbLine
 10
-114.3147932056651
 20
32.47119915551558
 30
0.0
 11
-92.1147932056651
 21
32.47119915551558
 31
0.0
  0
INSERT
  5
20D
330
132
100
AcDbEntity
  8
0
 62
     2
100
AcDbBlockReference
  2
_Open30
 10
-114.3147932056651
 20
32.47119915551558
 30
0.0
 41
3.000002807615286
 42
2.999989368223643
 50
180.0
  0
INSERT
  5
20E
330
132
100
AcDbEntity
  8
0
 62
     2
100
AcDbBlockReference
  2
_Open30
 10
-92.1147932056651
 20
32.47119915551558
 30
0.0
 41
3.000002807615286
 42
2.999989368223643
 50
360.0
  0
LINE
  5
20F
330
132
100
AcDbEntity
  8
0
  6
Continuous
 62
     2
370
    13
100
AcDbLine
 10
-114.3147932056651
 20
22.98790523690768
 30
0.0
 11
-114.3147932056651
 21
33.47119915551558
 31
0.0
  0
LINE
  5
210
330
132
100
AcDbEntity
  8
0
  6
Continuous
 62
     2
370
    13
100
AcDbLine
 10
-92.1147932056651
 20
22.98790523690768
 30
0.0
 11
-92.1147932056651
 21
33.47119915551558
 31
0.0
  0
MTEXT
  5
211
330
132
100
AcDbEntity
  8
0
 62
     4
100
AcDbMText
 10
-103.2147932056651
 20
33.47119915551558
 30
0.0
 40
4.5
 41
0.0
 46
0.0
 71
     8
 72
     1
  1
\T1.00;\W0.5769;φ22.2
  7
dcStyle0
 73
     1
 44
1.0
  0
ENDBLK
  5
134
330
132
100
AcDbEntity
  8
0
100
AcDbBlockEnd
  0
BLOCK
  5
136
330
135
100
AcDbEntity
  8
0
100
AcDbBlockBegin
  2
*D44
 70
     1
 10
0.0
 20
0.0
 30
0.0
  3
*D44
  1

  0
LINE
  5
212
330
135
100
AcDbEntity
  8
0
  6
Continuous
 62
     2
370
    13
100
AcDbLine
 10
-124.7147932056651
 20
39.34949152958451
 30
0.0
 11
-81.7147932056651
 21
39.34949152958451
 31
0.0
  0
INSERT
  5
213
330
135
100
AcDbEntity
  8
0
 62
     2
100
AcDbBlockReference
  2
_Open30
 10
-124.7147932056651
 20
39.34949152958451
 30
0.0
 41
3.000002807615286
 42
2.999989368223643
 50
180.0
  0
INSERT
  5
214
330
135
100
AcDbEntity
  8
0
 62
     2
100
AcDbBlockReference
  2
_Open30
 10
-81.7147932056651
 20
39.34949152958451
 30
0.0
 41
3.000002807615286
 42
2.999989368223643
 50
360.0
  0
LINE
  5
215
330
135
100
AcDbEntity
  8
0
  6
Continuous
 62
     2
370
    13
100
AcDbLine
 10
-124.7147932056651
 20
25.08790523690764
 30
0.0
 11
-124.7147932056651
 21
40.34949152958451
 31
0.0
  0
LINE
  5
216
330
135
100
AcDbEntity
  8
0
  6
Continuous
 62
     2
370
    13
100
AcDbLine
 10
-81.7147932056651
 20
25.08790523690764
 30
0.0
 11
-81.7147932056651
 21
40.34949152958451
 31
0.0
  0
MTEXT
  5
217
330
135
100
AcDbEntity
  8
0
 62
     4
100
AcDbMText
 10
-103.2147932056651
 20
40.34949152958451
 30
0.0
 40
4.5
 41
0.0
 46
0.0
 71
     8
 72
     1
  1
\T1.00;\W0.5000;43
  7
dcStyle0
 73
     1
 44
1.0
  0
ENDBLK
  5
137
330
135
100
AcDbEntity
  8
0
100
AcDbBlockEnd
  0
BLOCK
  5
169
330
168
100
AcDbEntity
  8
0
100
AcDbBlockBegin
  2
_Open30
 70
     0
 10
0.0
 20
0.0
 30
0.0
  3
_Open30
  1

  0
LINE
  5
16B
330
168
100
AcDbEntity
  8
0
  6
ByBlock
 62
     0
370
    -2
100
AcDbLine
 10
-1.0
 20
0.267949
 30
0.0
 11
0.0
 21
0.0
 31
0.0
  0
LINE
  5
16C
330
168
100
AcDbEntity
  8
0
  6
ByBlock
 62
     0
370
    -2
100
AcDbLine
 10
0.0
 20
0.0
 30
0.0
 11
-1.0
 21
-0.267949
 31
0.0
  0
LINE
  5
16D
330
168
100
AcDbEntity
  8
0
  6
ByBlock
 62
     0
370
    -2
100
AcDbLine
 10
0.0
 20
0.0
 30
0.0
 11
-1.0
 21
0.0
 31
0.0
  0
ENDBLK
  5
16A
330
168
100
AcDbEntity
  8
0
100
AcDbBlockEnd
  0
ENDSEC
  0
SECTION
  2
ENTITIES
  0
LINE
  5
218
330
1F
100
AcDbEntity
  8
ZUWAKU
  6
Continuous
 62
     4
370
    18
100
AcDbLine
 10
-200.0
 20
-138.5
 30
0.0
 11
-200.0
 21
138.5
 31
0.0
  0
LINE
  5
219
330
1F
100
AcDbEntity
  8
ZUWAKU
  6
Continuous
 62
     4
370
    18
100
AcDbLine
 10
-200.0
 20
138.5
 30
0.0
 11
200.0
 21
138.5
 31
0.0
  0
LINE
  5
21A
330
1F
100
AcDbEntity
  8
ZUWAKU
  6
Continuous
 62
     4
370
    18
100
AcDbLine
 10
200.0
 20
138.5
 30
0.0
 11
200.0
 21
-138.5
 31
0.0
  0
LINE
  5
21B
330
1F
100
AcDbEntity
  8
ZUWAKU
  6
Continuous
 62
     4
370
    18
100
AcDbLine
 10
-200.0
 20
-138.5
 30
0.0
 11
200.0
 21
-138.5
 31
0.0
  0
LINE
  5
21C
330
1F
100
AcDbEntity
  8
ZUWAKU
  6
Continuous
 62
     7
370
    18
100
AcDbLine
 10
200.0
 20
103.875
 30
0.0
 11
205.0
 21
103.875
 31
0.0
  0
LINE
  5
21D
330
1F
100
AcDbEntity
  8
ZUWAKU
  6
Continuous
 62
     7
370
    18
100
AcDbLine
 10
200.0
 20
69.25
 30
0.0
 11
205.0
 21
69.25
 31
0.0
  0
LINE
  5
21E
330
1F
100
AcDbEntity
  8
ZUWAKU
  6
Continuous
 62
     7
370
    18
100
AcDbLine
 10
200.0
 20
34.625
 30
0.0
 11
205.0
 21
34.625
 31
0.0
  0
LINE
  5
21F
330
1F
100
AcDbEntity
  8
ZUWAKU
  6
Continuous
 62
     7
370
    18
100
AcDbLine
 10
200.0
 20
-34.625
 30
0.0
 11
205.0
 21
-34.625
 31
0.0
  0
LINE
  5
220
330
1F
100
AcDbEntity
  8
ZUWAKU
  6
Continuous
 62
     7
370
    18
100
AcDbLine
 10
200.0
 20
-69.25
 30
0.0
 11
205.0
 21
-69.25
 31
0.0
  0
LINE
  5
221
330
1F
100
AcDbEntity
  8
ZUWAKU
  6
Continuous
 62
     7
370
    18
100
AcDbLine
 10
200.0
 20
-103.875
 30
0.0
 11
205.0
 21
-103.875
 31
0.0
  0
LINE
  5
222
330
1F
100
AcDbEntity
  8
ZUWAKU
  6
Continuous
 62
     7
370
    18
100
AcDbLine
 10
200.0
 20
0.0
 30
0.0
 11
210.0
 21
0.0
 31
0.0
  0
LINE
  5
223
330
1F
100
AcDbEntity
  8
ZUWAKU
  6
Continuous
 62
     7
370
    18
100
AcDbLine
 10
-166.666667
 20
138.5
 30
0.0
 11
-166.666667
 21
143.5
 31
0.0
  0
LINE
  5
224
330
1F
100
AcDbEntity
  8
ZUWAKU
  6
Continuous
 62
     7
370
    18
100
AcDbLine
 10
-133.333333
 20
138.5
 30
0.0
 11
-133.333333
 21
143.5
 31
0.0
  0
LINE
  5
225
330
1F
100
AcDbEntity
  8
ZUWAKU
  6
Continuous
 62
     7
370
    18
100
AcDbLine
 10
-100.0
 20
138.5
 30
0.0
 11
-100.0
 21
143.5
 31
0.0
  0
LINE
  5
226
330
1F
100
AcDbEntity
  8
ZUWAKU
  6
Continuous
 62
     7
370
    18
100
AcDbLine
 10
-66.66666699999999
 20
138.5
 30
0.0
 11
-66.66666699999999
 21
143.5
 31
0.0
  0
LINE
  5
227
330
1F
100
AcDbEntity
  8
ZUWAKU
  6
Continuous
 62
     7
370
    18
100
AcDbLine
 10
-33.33333300000001
 20
138.5
 30
0.0
 11
-33.33333300000001
 21
143.5
 31
0.0
  0
LINE
  5
228
330
1F
100
AcDbEntity
  8
ZUWAKU
  6
Continuous
 62
     7
370
    18
100
AcDbLine
 10
33.33333300000001
 20
138.5
 30
0.0
 11
33.33333300000001
 21
143.5
 31
0.0
  0
LINE
  5
229
330
1F
100
AcDbEntity
  8
ZUWAKU
  6
Continuous
 62
     7
370
    18
100
AcDbLine
 10
66.66666700000002
 20
138.5
 30
0.0
 11
66.66666700000002
 21
143.5
 31
0.0
  0
LINE
  5
22A
330
1F
100
AcDbEntity
  8
ZUWAKU
  6
Continuous
 62
     7
370
    18
100
AcDbLine
 10
100.0
 20
138.5
 30
0.0
 11
100.0
 21
143.5
 31
0.0
  0
LINE
  5
22B
330
1F
100
AcDbEntity
  8
ZUWAKU
  6
Continuous
 62
     7
370
    18
100
AcDbLine
 10
133.333333
 20
138.5
 30
0.0
 11
133.333333
 21
143.5
 31
0.0
  0
LINE
  5
22C
330
1F
100
AcDbEntity
  8
ZUWAKU
  6
Continuous
 62
     7
370
    18
100
AcDbLine
 10
166.666667
 20
138.5
 30
0.0
 11
166.666667
 21
143.5
 31
0.0
  0
LINE
  5
22D
330
1F
100
AcDbEntity
  8
ZUWAKU
  6
Continuous
 62
     7
370
    18
100
AcDbLine
 10
0.0
 20
138.5
 30
0.0
 11
0.0
 21
148.5
 31
0.0
  0
LINE
  5
22E
330
1F
100
AcDbEntity
  8
ZUWAKU
  6
Continuous
 62
     7
370
    18
100
AcDbLine
 10
-200.0
 20
103.875
 30
0.0
 11
-205.0
 21
103.875
 31
0.0
  0
LINE
  5
22F
330
1F
100
AcDbEntity
  8
ZUWAKU
  6
Continuous
 62
     7
370
    18
100
AcDbLine
 10
-200.0
 20
69.25
 30
0.0
 11
-205.0
 21
69.25
 31
0.0
  0
LINE
  5
230
330
1F
100
AcDbEntity
  8
ZUWAKU
  6
Continuous
 62
     7
370
    18
100
AcDbLine
 10
-200.0
 20
34.625
 30
0.0
 11
-205.0
 21
34.625
 31
0.0
  0
LINE
  5
231
330
1F
100
AcDbEntity
  8
ZUWAKU
  6
Continuous
 62
     7
370
    18
100
AcDbLine
 10
-200.0
 20
-34.625
 30
0.0
 11
-205.0
 21
-34.625
 31
0.0
  0
LINE
  5
232
330
1F
100
AcDbEntity
  8
ZUWAKU
  6
Continuous
 62
     7
370
    18
100
AcDbLine
 10
-200.0
 20
-69.25
 30
0.0
 11
-205.0
 21
-69.25
 31
0.0
  0
LINE
  5
233
330
1F
100
AcDbEntity
  8
ZUWAKU
  6
Continuous
 62
     7
370
    18
100
AcDbLine
 10
-200.0
 20
-103.875
 30
0.0
 11
-205.0
 21
-103.875
 31
0.0
  0
LINE
  5
234
330
1F
100
AcDbEntity
  8
ZUWAKU
  6
Continuous
 62
     7
370
    18
100
AcDbLine
 10
-200.0
 20
0.0
 30
0.0
 11
-210.0
 21
0.0
 31
0.0
  0
LINE
  5
235
330
1F
100
AcDbEntity
  8
ZUWAKU
  6
Continuous
 62
     7
370
    18
100
AcDbLine
 10
-166.666667
 20
-138.5
 30
0.0
 11
-166.666667
 21
-143.5
 31
0.0
  0
LINE
  5
236
330
1F
100
AcDbEntity
  8
ZUWAKU
  6
Continuous
 62
     7
370
    18
100
AcDbLine
 10
-133.333333
 20
-138.5
 30
0.0
 11
-133.333333
 21
-143.5
 31
0.0
  0
LINE
  5
237
330
1F
100
AcDbEntity
  8
ZUWAKU
  6
Continuous
 62
     7
370
    18
100
AcDbLine
 10
-100.0
 20
-138.5
 30
0.0
 11
-100.0
 21
-143.5
 31
0.0
  0
LINE
  5
238
330
1F
100
AcDbEntity
  8
ZUWAKU
  6
Continuous
 62
     7
370
    18
100
AcDbLine
 10
-66.66666699999999
 20
-138.5
 30
0.0
 11
-66.66666699999999
 21
-143.5
 31
0.0
  0
LINE
  5
239
330
1F
100
AcDbEntity
  8
ZUWAKU
  6
Continuous
 62
     7
370
    18
100
AcDbLine
 10
-33.33333300000001
 20
-138.5
 30
0.0
 11
-33.33333300000001
 21
-143.5
 31
0.0
  0
LINE
  5
23A
330
1F
100
AcDbEntity
  8
ZUWAKU
  6
Continuous
 62
     7
370
    18
100
AcDbLine
 10
33.33333300000001
 20
-138.5
 30
0.0
 11
33.33333300000001
 21
-143.5
 31
0.0
  0
LINE
  5
23B
330
1F
100
AcDbEntity
  8
ZUWAKU
  6
Continuous
 62
     7
370
    18
100
AcDbLine
 10
66.66666700000002
 20
-138.5
 30
0.0
 11
66.66666700000002
 21
-143.5
 31
0.0
  0
LINE
  5
23C
330
1F
100
AcDbEntity
  8
ZUWAKU
  6
Continuous
 62
     7
370
    18
100
AcDbLine
 10
100.0
 20
-138.5
 30
0.0
 11
100.0
 21
-143.5
 31
0.0
  0
LINE
  5
23D
330
1F
100
AcDbEntity
  8
ZUWAKU
  6
Continuous
 62
     7
370
    18
100
AcDbLine
 10
133.333333
 20
-138.5
 30
0.0
 11
133.333333
 21
-143.5
 31
0.0
  0
LINE
  5
23E
330
1F
100
AcDbEntity
  8
ZUWAKU
  6
Continuous
 62
     7
370
    18
100
AcDbLine
 10
166.666667
 20
-138.5
 30
0.0
 11
166.666667
 21
-143.5
 31
0.0
  0
LINE
  5
23F
330
1F
100
AcDbEntity
  8
ZUWAKU
  6
Continuous
 62
     7
370
    18
100
AcDbLine
 10
0.0
 20
-138.5
 30
0.0
 11
0.0
 21
-148.5
 31
0.0
  0
LINE
  5
240
330
1F
100
AcDbEntity
  8
ZUWAKU
  6
Continuous
 62
     7
370
    18
100
AcDbLine
 10
145.0
 20
-115.5
 30
0.0
 11
145.0
 21
-129.5
 31
0.0
  0
LINE
  5
241
330
1F
100
AcDbEntity
  8
ZUWAKU
  6
Continuous
 62
     7
370
    18
100
AcDbLine
 10
153.0
 20
-115.5
 30
0.0
 11
153.0
 21
-129.5
 31
0.0
  0
LINE
  5
242
330
1F
100
AcDbEntity
  8
ZUWAKU
  6
CENTER
 62
     7
370
    18
100
AcDbLine
 10
156.016667
 20
-122.741667
 30
0.0
 11
197.175
 21
-122.741667
 31
0.0
  0
LINE
  5
243
330
1F
100
AcDbEntity
  8
ZUWAKU
  6
CENTER
 62
     7
370
    18
100
AcDbLine
 10
163.991667
 20
-115.775
 30
0.0
 11
163.991667
 21
-129.158333
 31
0.0
  0
TEXT
  5
244
330
1F
100
AcDbEntity
  8
ZUWAKU
 62
     3
100
AcDbText
 10
201.0
 20
119.6875
 30
0.0
 40
3.0
  1
A
 41
0.8214705882352961
  7
dcStyle0
 72
     5
 11
202.995
 21
119.6875
 31
0.0
100
AcDbText
  0
TEXT
  5
245
330
1F
100
AcDbEntity
  8
ZUWAKU
 62
     3
100
AcDbText
 10
201.0
 20
85.0625
 30
0.0
 40
3.0
  1
B
 41
0.7758333333333352
  7
dcStyle0
 72
     5
 11
202.995
 21
85.0625
 31
0.0
100
AcDbText
  0
TEXT
  5
246
330
1F
100
AcDbEntity
  8
ZUWAKU
 62
     3
100
AcDbText
 10
201.0
 20
50.4375
 30
0.0
 40
3.0
  1
C
 41
0.7758333333333352
  7
dcStyle0
 72
     5
 11
202.995
 21
50.4375
 31
0.0
100
AcDbText
  0
TEXT
  5
247
330
1F
100
AcDbEntity
  8
ZUWAKU
 62
     3
100
AcDbText
 10
201.0
 20
15.8125
 30
0.0
 40
3.0
  1
D
 41
0.7758333333333352
  7
dcStyle0
 72
     5
 11
202.995
 21
15.8125
 31
0.0
100
AcDbText
  0
TEXT
  5
248
330
1F
100
AcDbEntity
  8
ZUWAKU
 62
     3
100
AcDbText
 10
201.0
 20
-18.8125
 30
0.0
 40
3.0
  1
E
 41
0.8214705882352961
  7
dcStyle0
 72
     5
 11
202.995
 21
-18.8125
 31
0.0
100
AcDbText
  0
TEXT
  5
249
330
1F
100
AcDbEntity
  8
ZUWAKU
 62
     3
100
AcDbText
 10
201.0
 20
-53.4375
 30
0.0
 40
3.0
  1
F
 41
0.8214705882352961
  7
dcStyle0
 72
     5
 11
202.995
 21
-53.4375
 31
0.0
100
AcDbText
  0
TEXT
  5
24A
330
1F
100
AcDbEntity
  8
ZUWAKU
 62
     3
100
AcDbText
 10
201.0
 20
-88.0625
 30
0.0
 40
3.0
  1
G
 41
0.7758333333333352
  7
dcStyle0
 72
     5
 11
202.995
 21
-88.0625
 31
0.0
100
AcDbText
  0
TEXT
  5
24B
330
1F
100
AcDbEntity
  8
ZUWAKU
 62
     3
100
AcDbText
 10
201.0
 20
-122.6875
 30
0.0
 40
3.0
  1
H
 41
0.7758333333333352
  7
dcStyle0
 72
     5
 11
202.995
 21
-122.6875
 31
0.0
100
AcDbText
  0
TEXT
  5
24C
330
1F
100
AcDbEntity
  8
ZUWAKU
 62
     3
100
AcDbText
 10
-184.333334
 20
139.5
 30
0.0
 40
3.0
  1
1
 41
1.269545454545457
  7
dcStyle0
 72
     5
 11
-182.338334
 21
139.5
 31
0.0
100
AcDbText
  0
TEXT
  5
24D
330
1F
100
AcDbEntity
  8
ZUWAKU
 62
     3
100
AcDbText
 10
-151.0
 20
139.5
 30
0.0
 40
3.0
  1
2
 41
0.8214705882352961
  7
dcStyle0
 72
     5
 11
-149.005
 21
139.5
 31
0.0
100
AcDbText
  0
TEXT
  5
24E
330
1F
100
AcDbEntity
  8
ZUWAKU
 62
     3
100
AcDbText
 10
-117.666664
 20
139.5
 30
0.0
 40
3.0
  1
3
 41
0.8214705882352961
  7
dcStyle0
 72
     5
 11
-115.671664
 21
139.5
 31
0.0
100
AcDbText
  0
TEXT
  5
24F
330
1F
100
AcDbEntity
  8
ZUWAKU
 62
     3
100
AcDbText
 10
-84.333336
 20
139.5
 30
0.0
 40
3.0
  1
4
 41
0.7758333333333352
  7
dcStyle0
 72
     5
 11
-82.338336
 21
139.5
 31
0.0
100
AcDbText
  0
TEXT
  5
250
330
1F
100
AcDbEntity
  8
ZUWAKU
 62
     3
100
AcDbText
 10
-51.0
 20
139.5
 30
0.0
 40
3.0
  1
5
 41
0.8214705882352932
  7
dcStyle0
 72
     5
 11
-49.005
 21
139.5
 31
0.0
100
AcDbText
  0
TEXT
  5
251
330
1F
100
AcDbEntity
  8
ZUWAKU
 62
     3
100
AcDbText
 10
-17.66667200000001
 20
139.5
 30
0.0
 40
3.0
  1
6
 41
0.8214705882352946
  7
dcStyle0
 72
     5
 11
-15.671672
 21
139.5
 31
0.0
100
AcDbText
  0
TEXT
  5
252
330
1F
100
AcDbEntity
  8
ZUWAKU
 62
     3
100
AcDbText
 10
15.66667200000001
 20
139.5
 30
0.0
 40
3.0
  1
7
 41
0.8214705882352946
  7
dcStyle0
 72
     5
 11
17.66167200000001
 21
139.5
 31
0.0
100
AcDbText
  0
TEXT
  5
253
330
1F
100
AcDbEntity
  8
ZUWAKU
 62
     3
100
AcDbText
 10
49.0
 20
139.5
 30
0.0
 40
3.0
  1
8
 41
0.8214705882352932
  7
dcStyle0
 72
     5
 11
50.995
 21
139.5
 31
0.0
100
AcDbText
  0
TEXT
  5
254
330
1F
100
AcDbEntity
  8
ZUWAKU
 62
     3
100
AcDbText
 10
82.33334400000001
 20
139.5
 30
0.0
 40
3.0
  1
9
 41
0.872812500000002
  7
dcStyle0
 72
     5
 11
84.32834400000002
 21
139.5
 31
0.0
100
AcDbText
  0
TEXT
  5
255
330
1F
100
AcDbEntity
  8
ZUWAKU
 62
     3
100
AcDbText
 10
114.666656
 20
139.5
 30
0.0
 40
3.0
  1
10
 41
0.754864864864864
  7
dcStyle0
 72
     5
 11
118.656656
 21
139.5
 31
0.0
100
AcDbText
  0
TEXT
  5
256
330
1F
100
AcDbEntity
  8
ZUWAKU
 62
     3
100
AcDbText
 10
148.0
 20
139.5
 30
0.0
 40
3.0
  1
11
 41
0.900967741935486
  7
dcStyle0
 72
     5
 11
151.99
 21
139.5
 31
0.0
100
AcDbText
  0
TEXT
  5
257
330
1F
100
AcDbEntity
  8
ZUWAKU
 62
     3
100
AcDbText
 10
181.333344
 20
139.5
 30
0.0
 40
3.0
  1
12
 41
0.7548648648648667
  7
dcStyle0
 72
     5
 11
185.323344
 21
139.5
 31
0.0
100
AcDbText
  0
TEXT
  5
258
330
1F
100
AcDbEntity
  8
ZUWAKU
 62
     3
100
AcDbText
 10
-203.0
 20
119.6875
 30
0.0
 40
3.0
  1
A
 41
0.8214705882352961
  7
dcStyle0
 72
     5
 11
-201.005
 21
119.6875
 31
0.0
100
AcDbText
  0
TEXT
  5
259
330
1F
100
AcDbEntity
  8
ZUWAKU
 62
     3
100
AcDbText
 10
-203.0
 20
85.0625
 30
0.0
 40
3.0
  1
B
 41
0.7758333333333352
  7
dcStyle0
 72
     5
 11
-201.005
 21
85.0625
 31
0.0
100
AcDbText
  0
TEXT
  5
25A
330
1F
100
AcDbEntity
  8
ZUWAKU
 62
     3
100
AcDbText
 10
-203.0
 20
50.4375
 30
0.0
 40
3.0
  1
C
 41
0.7758333333333352
  7
dcStyle0
 72
     5
 11
-201.005
 21
50.4375
 31
0.0
100
AcDbText
  0
TEXT
  5
25B
330
1F
100
AcDbEntity
  8
ZUWAKU
 62
     3
100
AcDbText
 10
-203.0
 20
15.8125
 30
0.0
 40
3.0
  1
D
 41
0.7758333333333352
  7
dcStyle0
 72
     5
 11
-201.005
 21
15.8125
 31
0.0
100
AcDbText
  0
TEXT
  5
25C
330
1F
100
AcDbEntity
  8
ZUWAKU
 62
     3
100
AcDbText
 10
-203.0
 20
-18.8125
 30
0.0
 40
3.0
  1
E
 41
0.8214705882352961
  7
dcStyle0
 72
     5
 11
-201.005
 21
-18.8125
 31
0.0
100
AcDbText
  0
TEXT
  5
25D
330
1F
100
AcDbEntity
  8
ZUWAKU
 62
     3
100
AcDbText
 10
-203.0
 20
-53.4375
 30
0.0
 40
3.0
  1
F
 41
0.8214705882352961
  7
dcStyle0
 72
     5
 11
-201.005
 21
-53.4375
 31
0.0
100
AcDbText
  0
TEXT
  5
25E
330
1F
100
AcDbEntity
  8
ZUWAKU
 62
     3
100
AcDbText
 10
-203.0
 20
-88.0625
 30
0.0
 40
3.0
  1
G
 41
0.7758333333333352
  7
dcStyle0
 72
     5
 11
-201.005
 21
-88.0625
 31
0.0
100
AcDbText
  0
TEXT
  5
25F
330
1F
100
AcDbEntity
  8
ZUWAKU
 62
     3
100
AcDbText
 10
-203.0
 20
-122.6875
 30
0.0
 40
3.0
  1
H
 41
0.7758333333333352
  7
dcStyle0
 72
     5
 11
-201.005
 21
-122.6875
 31
0.0
100
AcDbText
  0
TEXT
  5
260
330
1F
100
AcDbEntity
  8
ZUWAKU
 62
     3
100
AcDbText
 10
-184.333334
 20
-142.5
 30
0.0
 40
3.0
  1
1
 41
1.269545454545457
  7
dcStyle0
 72
     5
 11
-182.338334
 21
-142.5
 31
0.0
100
AcDbText
  0
TEXT
  5
261
330
1F
100
AcDbEntity
  8
ZUWAKU
 62
     3
100
AcDbText
 10
-151.0
 20
-142.5
 30
0.0
 40
3.0
  1
2
 41
0.8214705882352961
  7
dcStyle0
 72
     5
 11
-149.005
 21
-142.5
 31
0.0
100
AcDbText
  0
TEXT
  5
262
330
1F
100
AcDbEntity
  8
ZUWAKU
 62
     3
100
AcDbText
 10
-117.666664
 20
-142.5
 30
0.0
 40
3.0
  1
3
 41
0.8214705882352961
  7
dcStyle0
 72
     5
 11
-115.671664
 21
-142.5
 31
0.0
100
AcDbText
  0
TEXT
  5
263
330
1F
100
AcDbEntity
  8
ZUWAKU
 62
     3
100
AcDbText
 10
-84.333336
 20
-142.5
 30
0.0
 40
3.0
  1
4
 41
0.7758333333333352
  7
dcStyle0
 72
     5
 11
-82.338336
 21
-142.5
 31
0.0
100
AcDbText
  0
TEXT
  5
264
330
1F
100
AcDbEntity
  8
ZUWAKU
 62
     3
100
AcDbText
 10
-51.0
 20
-142.5
 30
0.0
 40
3.0
  1
5
 41
0.8214705882352932
  7
dcStyle0
 72
     5
 11
-49.005
 21
-142.5
 31
0.0
100
AcDbText
  0
TEXT
  5
265
330
1F
100
AcDbEntity
  8
ZUWAKU
 62
     3
100
AcDbText
 10
-17.66667200000001
 20
-142.5
 30
0.0
 40
3.0
  1
6
 41
0.8214705882352946
  7
dcStyle0
 72
     5
 11
-15.671672
 21
-142.5
 31
0.0
100
AcDbText
  0
TEXT
  5
266
330
1F
100
AcDbEntity
  8
ZUWAKU
 62
     3
100
AcDbText
 10
15.66667200000001
 20
-142.5
 30
0.0
 40
3.0
  1
7
 41
0.8214705882352946
  7
dcStyle0
 72
     5
 11
17.66167200000001
 21
-142.5
 31
0.0
100
AcDbText
  0
TEXT
  5
267
330
1F
100
AcDbEntity
  8
ZUWAKU
 62
     3
100
AcDbText
 10
49.0
 20
-142.5
 30
0.0
 40
3.0
  1
8
 41
0.8214705882352932
  7
dcStyle0
 72
     5
 11
50.995
 21
-142.5
 31
0.0
100
AcDbText
  0
TEXT
  5
268
330
1F
100
AcDbEntity
  8
ZUWAKU
 62
     3
100
AcDbText
 10
82.33334400000001
 20
-142.5
 30
0.0
 40
3.0
  1
9
 41
0.872812500000002
  7
dcStyle0
 72
     5
 11
84.32834400000002
 21
-142.5
 31
0.0
100
AcDbText
  0
TEXT
  5
269
330
1F
100
AcDbEntity
  8
ZUWAKU
 62
     3
100
AcDbText
 10
114.666656
 20
-142.5
 30
0.0
 40
3.0
  1
10
 41
0.754864864864864
  7
dcStyle0
 72
     5
 11
118.656656
 21
-142.5
 31
0.0
100
AcDbText
  0
TEXT
  5
26A
330
1F
100
AcDbEntity
  8
ZUWAKU
 62
     3
100
AcDbText
 10
148.0
 20
-142.5
 30
0.0
 40
3.0
  1
11
 41
0.900967741935486
  7
dcStyle0
 72
     5
 11
151.99
 21
-142.5
 31
0.0
100
AcDbText
  0
TEXT
  5
26B
330
1F
100
AcDbEntity
  8
ZUWAKU
 62
     3
100
AcDbText
 10
181.333344
 20
-142.5
 30
0.0
 40
3.0
  1
12
 41
0.7548648648648667
  7
dcStyle0
 72
     5
 11
185.323344
 21
-142.5
 31
0.0
100
AcDbText
  0
TEXT
  5
26C
330
1F
100
AcDbEntity
  8
ZUWAKU
 62
     3
100
AcDbText
 10
167.5
 20
-99.506168
 30
0.0
 40
4.0
  1
2025年-月-日
 41
0.6747540983606561
  7
dcStyle0
 72
     5
 11
191.02
 21
-99.506168
 31
0.0
100
AcDbText
  0
TEXT
  5
26D
330
1F
100
AcDbEntity
  8
ZUWAKU
 62
     3
100
AcDbText
 10
145.150404368563
 20
-125.0
 30
0.0
 40
4.0
  1
図法
 41
1.145454545454544
  7
dcStyle0
 72
     5
 11
152.3504043685629
 21
-125.0
 31
0.0
100
AcDbText
  0
TEXT
  5
26E
330
1F
100
AcDbEntity
  8
ZUWAKU
 62
     3
100
AcDbText
 10
167.5000000000073
 20
-93.50616500000001
 30
0.0
 40
4.0
  1
2025年7月01日
 41
0.7003664921465967
  7
dcStyle0
 72
     5
 11
192.9800000000073
 21
-93.50616500000001
 31
0.0
100
AcDbText
  0
CIRCLE
  5
26F
330
1F
100
AcDbEntity
  8
ZUWAKU
  6
Continuous
 62
     3
370
    18
100
AcDbCircle
 10
163.991667
 20
-122.741667
 30
0.0
 40
2.535374725755567
  0
CIRCLE
  5
270
330
1F
100
AcDbEntity
  8
ZUWAKU
  6
Continuous
 62
     3
370
    18
100
AcDbCircle
 10
163.991667
 20
-122.741667
 30
0.0
 40
5.95833333333337
  0
LINE
  5
271
330
1F
100
AcDbEntity
  8
ZUWAKU
  6
Continuous
 62
     3
370
    18
100
AcDbLine
 10
176.733333
 20
-120.206292
 30
0.0
 11
176.733333
 21
-125.277041
 31
0.0
  0
LINE
  5
272
330
1F
100
AcDbEntity
  8
ZUWAKU
  6
Continuous
 62
     3
370
    18
100
AcDbLine
 10
190.391667
 20
-116.783333
 30
0.0
 11
190.391667
 21
-128.7
 31
0.0
  0
LINE
  5
273
330
1F
100
AcDbEntity
  8
ZUWAKU
  6
Continuous
 62
     3
370
    18
100
AcDbLine
 10
176.733333
 20
-120.206292
 30
0.0
 11
190.391667
 21
-116.783333
 31
0.0
  0
LINE
  5
274
330
1F
100
AcDbEntity
  8
ZUWAKU
  6
Continuous
 62
     3
370
    18
100
AcDbLine
 10
176.733333
 20
-125.277041
 30
0.0
 11
190.391667
 21
-128.7
 31
0.0
  0
TEXT
  5
275
330
1F
100
AcDbEntity
  8
ZUWAKU
 62
     7
100
AcDbText
 10
130.2660209442288
 20
-103.308334
 30
0.0
 40
6.0
  1
SUZUKI
 41
0.4623853211009176
  7
dcStyle0
 72
     5
 11
144.6660209442288
 21
-103.308334
 31
0.0
100
AcDbText
  0
TEXT
  5
276
330
1F
100
AcDbEntity
  8
ZUWAKU
 62
     7
100
AcDbText
 10
175.633331
 20
-106.516666
 30
0.0
 40
6.0
  1
1：1
 41
0.7457142857142857
  7
dcStyle0
 72
     5
 11
186.073331
 21
-106.516666
 31
0.0
100
AcDbText
  0
TEXT
  5
277
330
1F
100
AcDbEntity
  8
ZUWAKU
 62
     7
100
AcDbText
 10
113.7867299535062
 20
-124.7719628949848
 30
0.0
 40
3.5
  1
ＳＵＳ３０４
 41
1.596
  7
dcStyle0
 72
     5
 11
141.7167299535062
 21
-124.7719628949848
 31
0.0
100
AcDbText
  0
TEXT
  5
278
330
1F
100
AcDbEntity
  8
ZUWAKU
 62
     7
100
AcDbText
 10
109.6760343848841
 20
-136.95
 30
0.0
 40
4.5
  1
com-1195THJ1-00S304A
 41
0.6812195121951219
  7
dcStyle0
 72
     5
 11
169.5260343848841
 21
-136.95
 31
0.0
100
AcDbText
  0
TEXT
  5
279
330
1F
100
AcDbEntity
  8
ZUWAKU
 62
     4
100
AcDbText
 10
108.4956521740883
 20
-113.8748703946914
 30
0.0
 40
4.5
  1
1.0Ｓチ-ズヘルール付
 41
0.7741935483870972
  7
dcStyle0
 72
     5
 11
144.4956521740883
 21
-113.8748703946914
 31
0.0
100
AcDbText
  0
TEXT
  5
27A
330
1F
100
AcDbEntity
  8
ZUWAKU
 62
     2
100
AcDbText
 10
131.3822288127785
 20
131.1606435935433
 30
0.0
 40
4.5
  1
( 
 41
0.8400000000000015
  7
dcStyle0
 72
     5
 11
137.6822288127785
 21
131.1606435935433
 31
0.0
100
AcDbText
  0
TEXT
  5
27B
330
1F
100
AcDbEntity
  8
ZUWAKU
 62
     2
100
AcDbText
 10
173.8887090674116
 20
131.1606435935433
 30
0.0
 40
4.5
  1
(      )
 41
0.7839999999999996
  7
dcStyle0
 72
     5
 11
199.0887090674116
 21
131.1606435935433
 31
0.0
100
AcDbText
  0
TEXT
  5
27C
330
1F
100
AcDbEntity
  8
ZUWAKU
 62
     2
100
AcDbText
 10
119.9484492409228
 20
123.5439080973931
 30
0.0
 40
3.5
  1
表面仕上げ　内部の粗さ共に　＃４００　トスル。
 41
0.9401459854014595
  7
dcStyle0
 72
     5
 11
184.3484492409227
 21
123.5439080973931
 31
0.0
100
AcDbText
  0
LINE
  5
27D
330
1F
100
AcDbEntity
  8
ZUWAKU
  6
Continuous
 62
     3
370
    13
100
AcDbLine
 10
118.4688860855741
 20
134.1739358470646
 30
0.0
 11
156.2393401238495
 21
134.1739358470646
 31
0.0
  0
LINE
  5
27E
330
1F
100
AcDbEntity
  8
ZUWAKU
  6
Continuous
 62
     3
370
    13
100
AcDbLine
 10
175.157164512836
 20
134.1739358470646
 30
0.0
 11
193.3984934733537
 21
134.1739358470646
 31
0.0
  0
LINE
  5
27F
330
1F
100
AcDbEntity
  8
ZUWAKU
  6
Continuous
 62
     3
370
    13
100
AcDbLine
 10
118.4688860855741
 20
132.1739358470646
 30
0.0
 11
156.2393401238495
 21
132.1739358470646
 31
0.0
  0
LINE
  5
280
330
1F
100
AcDbEntity
  8
ZUWAKU
  6
Continuous
 62
     3
370
    13
100
AcDbLine
 10
175.2478974835266
 20
132.1739358470646
 30
0.0
 11
193.3984934733537
 21
132.1739358470646
 31
0.0
  0
LINE
  5
281
330
1F
100
AcDbEntity
  8
0
  6
Continuous
 62
     3
370
    18
100
AcDbLine
 10
23.73782524820024
 20
106.832890599588
 30
0.0
 11
23.73782524820024
 21
57.33289059958796
 31
0.0
  0
LINE
  5
282
330
1F
100
AcDbEntity
  8
0
  6
Continuous
 62
     3
370
    18
100
AcDbLine
 10
26.73782524820024
 20
106.9852784631398
 30
0.0
 11
26.73782524820024
 21
57.18050273603607
 31
0.0
  0
LINE
  5
283
330
1F
100
AcDbEntity
  8
0
  6
Continuous
 62
     3
370
    18
100
AcDbLine
 10
24.23782524820024
 20
107.332890599588
 30
0.0
 11
26.37284905826397
 21
107.332890599588
 31
0.0
  0
LINE
  5
284
330
1F
100
AcDbEntity
  8
0
  6
Continuous
 62
     3
370
    18
100
AcDbLine
 10
24.23782524820024
 20
56.83289059958796
 30
0.0
 11
26.37284905826397
 21
56.83289059958796
 31
0.0
  0
ARC
  5
285
330
1F
100
AcDbEntity
  8
0
  6
Continuous
 62
     3
370
    18
100
AcDbCircle
 10
24.23782524820024
 20
106.832890599588
 30
0.0
 40
0.5
100
AcDbArc
 50
90.0
 51
180.0
  0
ARC
  5
286
330
1F
100
AcDbEntity
  8
0
  6
Continuous
 62
     3
370
    18
100
AcDbCircle
 10
24.23782524820024
 20
57.33289059958796
 30
0.0
 40
0.5
100
AcDbArc
 50
180.0
 51
270.0
  0
CIRCLE
  5
287
330
1F
100
AcDbEntity
  8
0
  6
Continuous
 62
     3
370
    18
100
AcDbCircle
 10
78.73782524820024
 20
82.08289059958796
 30
0.0
 40
23.0
  0
CIRCLE
  5
288
330
1F
100
AcDbEntity
  8
0
  6
Continuous
 62
     3
370
    18
100
AcDbCircle
 10
78.73782524820024
 20
82.08289059958796
 30
0.0
 40
20.0
  0
LINE
  5
289
330
1F
100
AcDbEntity
  8
0
  6
Continuous
 62
     3
370
    18
100
AcDbLine
 10
30.73782524820022
 20
69.33289059958796
 30
0.0
 11
30.73782524820022
 21
94.83289059958796
 31
0.0
  0
ARC
  5
28A
330
1F
100
AcDbEntity
  8
0
  6
Continuous
 62
     3
370
    18
100
AcDbCircle
 10
32.1977300079453
 20
96.83289059958796
 30
0.0
 40
2.0
100
AcDbArc
 50
197.7446716250567
 51
270.0
  0
ARC
  5
28B
330
1F
100
AcDbEntity
  8
0
  6
Continuous
 62
     3
370
    18
100
AcDbCircle
 10
32.1977300079453
 20
67.33289059958796
 30
0.0
 40
2.0
100
AcDbArc
 50
90.0
 51
162.2553283749432
  0
LINE
  5
28C
330
1F
100
AcDbEntity
  8
0
  6
Continuous
 62
     3
370
    18
100
AcDbLine
 10
32.1977300079453
 20
94.83289059958796
 30
0.0
 11
56.94333053049687
 21
94.83289059958796
 31
0.0
  0
LINE
  5
28D
330
1F
100
AcDbEntity
  8
0
  6
Continuous
 62
     3
370
    18
100
AcDbLine
 10
56.94333053049687
 20
69.33289059958796
 30
0.0
 11
32.1977300079453
 21
69.33289059958796
 31
0.0
  0
CIRCLE
  5
28E
330
1F
100
AcDbEntity
  8
0
  6
Continuous
 62
     3
370
    18
100
AcDbCircle
 10
78.73782524820024
 20
82.08289059958796
 30
0.0
 40
11.1
  0
LINE
  5
28F
330
1F
100
AcDbEntity
  8
0
  6
Continuous
 62
     3
370
    18
100
AcDbLine
 10
133.7378252482002
 20
106.832890599588
 30
0.0
 11
133.7378252482002
 21
57.33289059958796
 31
0.0
  0
LINE
  5
290
330
1F
100
AcDbEntity
  8
0
  6
Continuous
 62
     3
370
    18
100
AcDbLine
 10
130.7378252482002
 20
106.9852784631398
 30
0.0
 11
130.7378252482002
 21
57.18050273603607
 31
0.0
  0
LINE
  5
291
330
1F
100
AcDbEntity
  8
0
  6
Continuous
 62
     3
370
    18
100
AcDbLine
 10
133.2378252482002
 20
107.332890599588
 30
0.0
 11
131.1028014381365
 21
107.332890599588
 31
0.0
  0
LINE
  5
292
330
1F
100
AcDbEntity
  8
0
  6
Continuous
 62
     3
370
    18
100
AcDbLine
 10
133.2378252482002
 20
56.83289059958796
 30
0.0
 11
131.1028014381365
 21
56.83289059958796
 31
0.0
  0
ARC
  5
293
330
1F
100
AcDbEntity
  8
0
  6
Continuous
 62
     3
370
    18
100
AcDbCircle
 10
133.2378252482002
 20
106.832890599588
 30
0.0
 40
0.5
100
AcDbArc
 50
0.0
 51
90.0
  0
ARC
  5
294
330
1F
100
AcDbEntity
  8
0
  6
Continuous
 62
     3
370
    18
100
AcDbCircle
 10
133.2378252482002
 20
57.33289059958796
 30
0.0
 40
0.5
100
AcDbArc
 50
270.0
 51
0.0
  0
LINE
  5
295
330
1F
100
AcDbEntity
  8
0
  6
Continuous
 62
     3
370
    18
100
AcDbLine
 10
126.7378252482003
 20
69.33289059958796
 30
0.0
 11
126.7378252482003
 21
94.83289059958796
 31
0.0
  0
ARC
  5
296
330
1F
100
AcDbEntity
  8
0
  6
Continuous
 62
     3
370
    18
100
AcDbCircle
 10
125.2779204884552
 20
96.83289059958796
 30
0.0
 40
2.0
100
AcDbArc
 50
270.0
 51
342.2553283749432
  0
ARC
  5
297
330
1F
100
AcDbEntity
  8
0
  6
Continuous
 62
     3
370
    18
100
AcDbCircle
 10
125.2779204884552
 20
67.33289059958796
 30
0.0
 40
2.0
100
AcDbArc
 50
17.7446716250568
 51
90.0
  0
LINE
  5
298
330
1F
100
AcDbEntity
  8
0
  6
Continuous
 62
     3
370
    18
100
AcDbLine
 10
125.2779204884552
 20
94.83289059958796
 30
0.0
 11
100.5323199659036
 21
94.83289059958796
 31
0.0
  0
LINE
  5
299
330
1F
100
AcDbEntity
  8
0
  6
Continuous
 62
     3
370
    18
100
AcDbLine
 10
100.5323199659036
 20
69.33289059958796
 30
0.0
 11
125.2779204884552
 21
69.33289059958796
 31
0.0
  0
LINE
  5
29A
330
1F
100
AcDbEntity
  8
0
  6
Continuous
 62
     3
370
    18
100
AcDbLine
 10
23.73782524820024
 20
-6.762094763092311
 30
0.0
 11
23.73782524820024
 21
-56.2620947630923
 31
0.0
  0
LINE
  5
29B
330
1F
100
AcDbEntity
  8
0
  6
Continuous
 62
     3
370
    18
100
AcDbLine
 10
26.73782524820024
 20
-6.609706899540416
 30
0.0
 11
26.73782524820024
 21
-56.41448262664419
 31
0.0
  0
LINE
  5
29C
330
1F
100
AcDbEntity
  8
0
  6
Continuous
 62
     3
370
    18
100
AcDbLine
 10
24.23782524820024
 20
-6.262094763092311
 30
0.0
 11
26.37284905826397
 21
-6.262094763092311
 31
0.0
  0
LINE
  5
29D
330
1F
100
AcDbEntity
  8
0
  6
Continuous
 62
     3
370
    18
100
AcDbLine
 10
24.23782524820024
 20
-56.7620947630923
 30
0.0
 11
26.37284905826397
 21
-56.7620947630923
 31
0.0
  0
ARC
  5
29E
330
1F
100
AcDbEntity
  8
0
  6
Continuous
 62
     3
370
    18
100
AcDbCircle
 10
24.23782524820024
 20
-6.762094763092311
 30
0.0
 40
0.5
100
AcDbArc
 50
90.0
 51
180.0
  0
ARC
  5
29F
330
1F
100
AcDbEntity
  8
0
  6
Continuous
 62
     3
370
    18
100
AcDbCircle
 10
24.23782524820024
 20
-56.2620947630923
 30
0.0
 40
0.5
100
AcDbArc
 50
180.0
 51
270.0
  0
LINE
  5
2A0
330
1F
100
AcDbEntity
  8
0
  6
Continuous
 62
     3
370
    18
100
AcDbLine
 10
30.73782524820022
 20
-44.26209476309231
 30
0.0
 11
30.73782524820022
 21
-18.76209476309231
 31
0.0
  0
ARC
  5
2A1
330
1F
100
AcDbEntity
  8
0
  6
Continuous
 62
     3
370
    18
100
AcDbCircle
 10
32.1977300079453
 20
-16.76209476309231
 30
0.0
 40
2.0
100
AcDbArc
 50
197.7446716250567
 51
270.0
  0
ARC
  5
2A2
330
1F
100
AcDbEntity
  8
0
  6
Continuous
 62
     3
370
    18
100
AcDbCircle
 10
32.1977300079453
 20
-46.26209476309231
 30
0.0
 40
2.0
100
AcDbArc
 50
90.0
 51
162.2553283749432
  0
LINE
  5
2A3
330
1F
100
AcDbEntity
  8
0
  6
Continuous
 62
     3
370
    18
100
AcDbLine
 10
32.1977300079453
 20
-18.76209476309231
 30
0.0
 11
64.73782524820024
 21
-18.76209476309231
 31
0.0
  0
LINE
  5
2A4
330
1F
100
AcDbEntity
  8
0
  6
Continuous
 62
     3
370
    18
100
AcDbLine
 10
78.73782524820024
 20
-44.26209476309231
 30
0.0
 11
32.1977300079453
 21
-44.26209476309231
 31
0.0
  0
LINE
  5
2A5
330
1F
100
AcDbEntity
  8
0
  6
Continuous
 62
     3
370
    18
100
AcDbLine
 10
133.7378252482002
 20
-6.762094763092311
 30
0.0
 11
133.7378252482002
 21
-56.2620947630923
 31
0.0
  0
LINE
  5
2A6
330
1F
100
AcDbEntity
  8
0
  6
Continuous
 62
     3
370
    18
100
AcDbLine
 10
130.7378252482002
 20
-6.609706899540416
 30
0.0
 11
130.7378252482002
 21
-56.41448262664419
 31
0.0
  0
LINE
  5
2A7
330
1F
100
AcDbEntity
  8
0
  6
Continuous
 62
     3
370
    18
100
AcDbLine
 10
133.2378252482002
 20
-6.262094763092311
 30
0.0
 11
131.1028014381365
 21
-6.262094763092311
 31
0.0
  0
LINE
  5
2A8
330
1F
100
AcDbEntity
  8
0
  6
Continuous
 62
     3
370
    18
100
AcDbLine
 10
133.2378252482002
 20
-56.7620947630923
 30
0.0
 11
131.1028014381365
 21
-56.7620947630923
 31
0.0
  0
ARC
  5
2A9
330
1F
100
AcDbEntity
  8
0
  6
Continuous
 62
     3
370
    18
100
AcDbCircle
 10
133.2378252482002
 20
-6.762094763092311
 30
0.0
 40
0.5
100
AcDbArc
 50
0.0
 51
90.0
  0
ARC
  5
2AA
330
1F
100
AcDbEntity
  8
0
  6
Continuous
 62
     3
370
    18
100
AcDbCircle
 10
133.2378252482002
 20
-56.2620947630923
 30
0.0
 40
0.5
100
AcDbArc
 50
270.0
 51
0.0
  0
LINE
  5
2AB
330
1F
100
AcDbEntity
  8
0
  6
Continuous
 62
     3
370
    18
100
AcDbLine
 10
126.7378252482003
 20
-44.26209476309231
 30
0.0
 11
126.7378252482003
 21
-18.76209476309231
 31
0.0
  0
ARC
  5
2AC
330
1F
100
AcDbEntity
  8
0
  6
Continuous
 62
     3
370
    18
100
AcDbCircle
 10
125.2779204884552
 20
-16.76209476309231
 30
0.0
 40
2.0
100
AcDbArc
 50
270.0
 51
342.2553283749432
  0
ARC
  5
2AD
330
1F
100
AcDbEntity
  8
0
  6
Continuous
 62
     3
370
    18
100
AcDbCircle
 10
125.2779204884552
 20
-46.26209476309231
 30
0.0
 40
2.0
100
AcDbArc
 50
17.7446716250568
 51
90.0
  0
LINE
  5
2AE
330
1F
100
AcDbEntity
  8
0
  6
Continuous
 62
     3
370
    18
100
AcDbLine
 10
92.73782524820024
 20
-18.76209476309231
 30
0.0
 11
125.2779204884552
 21
-18.76209476309231
 31
0.0
  0
LINE
  5
2AF
330
1F
100
AcDbEntity
  8
0
  6
Continuous
 62
     3
370
    18
100
AcDbLine
 10
78.73782524820024
 20
-44.26209476309231
 30
0.0
 11
125.2779204884552
 21
-44.26209476309231
 31
0.0
  0
LINE
  5
2B0
330
1F
100
AcDbEntity
  8
0
  6
Continuous
 62
     3
370
    18
100
AcDbLine
 10
103.4878252482002
 20
21.98790523690769
 30
0.0
 11
53.98782524820025
 21
21.98790523690769
 31
0.0
  0
LINE
  5
2B1
330
1F
100
AcDbEntity
  8
0
  6
Continuous
 62
     3
370
    18
100
AcDbLine
 10
103.6402131117521
 20
18.98790523690769
 30
0.0
 11
53.83543738464835
 21
18.98790523690769
 31
0.0
  0
LINE
  5
2B2
330
1F
100
AcDbEntity
  8
0
  6
Continuous
 62
     3
370
    18
100
AcDbLine
 10
103.9878252482002
 20
21.48790523690769
 30
0.0
 11
103.9878252482002
 21
19.35288142684396
 31
0.0
  0
LINE
  5
2B3
330
1F
100
AcDbEntity
  8
0
  6
Continuous
 62
     3
370
    18
100
AcDbLine
 10
53.48782524820025
 20
21.48790523690769
 30
0.0
 11
53.48782524820025
 21
19.35288142684396
 31
0.0
  0
ARC
  5
2B4
330
1F
100
AcDbEntity
  8
0
  6
Continuous
 62
     3
370
    18
100
AcDbCircle
 10
103.4878252482002
 20
21.48790523690769
 30
0.0
 40
0.5
100
AcDbArc
 50
0.0000000000000035
 51
90.00000000000001
  0
ARC
  5
2B5
330
1F
100
AcDbEntity
  8
0
  6
Continuous
 62
     3
370
    18
100
AcDbCircle
 10
53.98782524820025
 20
21.48790523690769
 30
0.0
 40
0.5
100
AcDbArc
 50
90.00000000000001
 51
180.0
  0
LINE
  5
2B6
330
1F
100
AcDbEntity
  8
0
  6
Continuous
 62
     3
370
    18
100
AcDbLine
 10
66.23782524820024
 20
14.98790523690771
 30
0.0
 11
91.23782524820024
 21
14.98790523690771
 31
0.0
  0
LINE
  5
2B7
330
1F
100
AcDbEntity
  8
0
  6
Continuous
 62
     3
370
    18
100
AcDbLine
 10
91.23782524820024
 20
-17.26209476309231
 30
0.0
 11
91.23782524820024
 21
13.8862229751572
 31
0.0
  0
LINE
  5
2B8
330
1F
100
AcDbEntity
  8
0
  6
Continuous
 62
     3
370
    18
100
AcDbLine
 10
66.23782524820024
 20
13.8862229751572
 30
0.0
 11
66.23782524820024
 21
-17.26209476309231
 31
0.0
  0
ARC
  5
2B9
330
1F
100
AcDbEntity
  8
0
  6
Continuous
 62
     3
370
    18
100
AcDbCircle
 10
64.73782524820024
 20
-17.26209476309231
 30
0.0
 40
1.5
100
AcDbArc
 50
270.0
 51
0.0
  0
ARC
  5
2BA
330
1F
100
AcDbEntity
  8
0
  6
Continuous
 62
     3
370
    18
100
AcDbCircle
 10
92.73782524820024
 20
-17.26209476309231
 30
0.0
 40
1.5
100
AcDbArc
 50
180.0
 51
270.0
  0
LINE
  5
2BB
330
1F
100
AcDbEntity
  8
0
  6
Continuous
 62
     3
370
    18
100
AcDbLine
 10
-32.93395328470172
 20
106.832890599588
 30
0.0
 11
-32.93395328470172
 21
57.33289059958796
 31
0.0
  0
LINE
  5
2BC
330
1F
100
AcDbEntity
  8
0
  6
Continuous
 62
     3
370
    18
100
AcDbLine
 10
-35.93395328470172
 20
106.9852784631398
 30
0.0
 11
-35.93395328470172
 21
57.18050273603607
 31
0.0
  0
LINE
  5
2BD
330
1F
100
AcDbEntity
  8
0
  6
Continuous
 62
     3
370
    18
100
AcDbLine
 10
-33.43395328470172
 20
107.332890599588
 30
0.0
 11
-35.56897709476545
 21
107.332890599588
 31
0.0
  0
LINE
  5
2BE
330
1F
100
AcDbEntity
  8
0
  6
Continuous
 62
     3
370
    18
100
AcDbLine
 10
-33.43395328470172
 20
56.83289059958796
 30
0.0
 11
-35.56897709476545
 21
56.83289059958796
 31
0.0
  0
ARC
  5
2BF
330
1F
100
AcDbEntity
  8
0
  6
Continuous
 62
     3
370
    18
100
AcDbCircle
 10
-33.43395328470172
 20
106.832890599588
 30
0.0
 40
0.5
100
AcDbArc
 50
0.0
 51
90.0
  0
ARC
  5
2C0
330
1F
100
AcDbEntity
  8
0
  6
Continuous
 62
     3
370
    18
100
AcDbCircle
 10
-33.43395328470172
 20
57.33289059958796
 30
0.0
 40
0.5
100
AcDbArc
 50
270.0
 51
0.0
  0
CIRCLE
  5
2C1
330
1F
100
AcDbEntity
  8
0
  6
Continuous
 62
     3
370
    18
100
AcDbCircle
 10
-87.93395328470172
 20
82.08289059958796
 30
0.0
 40
23.0
  0
CIRCLE
  5
2C2
330
1F
100
AcDbEntity
  8
0
  6
Continuous
 62
     3
370
    18
100
AcDbCircle
 10
-87.93395328470172
 20
82.08289059958796
 30
0.0
 40
20.0
  0
LINE
  5
2C3
330
1F
100
AcDbEntity
  8
0
  6
Continuous
 62
     3
370
    18
100
AcDbLine
 10
-39.93395328470169
 20
69.33289059958796
 30
0.0
 11
-39.93395328470169
 21
94.83289059958796
 31
0.0
  0
ARC
  5
2C4
330
1F
100
AcDbEntity
  8
0
  6
Continuous
 62
     3
370
    18
100
AcDbCircle
 10
-41.39385804444678
 20
96.83289059958796
 30
0.0
 40
2.0
100
AcDbArc
 50
270.0
 51
342.2553283749432
  0
ARC
  5
2C5
330
1F
100
AcDbEntity
  8
0
  6
Continuous
 62
     3
370
    18
100
AcDbCircle
 10
-41.39385804444678
 20
67.33289059958796
 30
0.0
 40
2.0
100
AcDbArc
 50
17.7446716250568
 51
90.0
  0
LINE
  5
2C6
330
1F
100
AcDbEntity
  8
0
  6
Continuous
 62
     3
370
    18
100
AcDbLine
 10
-41.39385804444678
 20
94.83289059958796
 30
0.0
 11
-66.13945856699834
 21
94.83289059958796
 31
0.0
  0
LINE
  5
2C7
330
1F
100
AcDbEntity
  8
0
  6
Continuous
 62
     3
370
    18
100
AcDbLine
 10
-66.13945856699834
 20
69.33289059958796
 30
0.0
 11
-41.39385804444678
 21
69.33289059958796
 31
0.0
  0
CIRCLE
  5
2C8
330
1F
100
AcDbEntity
  8
0
  6
Continuous
 62
     3
370
    18
100
AcDbCircle
 10
-87.93395328470172
 20
82.08289059958796
 30
0.0
 40
11.1
  0
ARC
  5
2C9
330
1F
100
AcDbEntity
  8
0
  6
Continuous
 62
     3
370
    18
100
AcDbCircle
 10
92.73782524820024
 20
13.8862229751572
 30
0.0
 40
1.5
100
AcDbArc
 50
107.4087971039176
 51
180.0
  0
ARC
  5
2CA
330
1F
100
AcDbEntity
  8
0
  6
Continuous
 62
     3
370
    18
100
AcDbCircle
 10
64.73782524820024
 20
13.8862229751572
 30
0.0
 40
1.5
100
AcDbArc
 50
0.0
 51
72.59120289608236
  0
LINE
  5
2CB
330
1F
100
AcDbEntity
  8
0
  6
Continuous
 62
     3
370
    18
100
AcDbLine
 10
-158.2147932056651
 20
-6.762094763092311
 30
0.0
 11
-158.2147932056651
 21
-56.26209476309231
 31
0.0
  0
LINE
  5
2CC
330
1F
100
AcDbEntity
  8
0
  6
Continuous
 62
     3
370
    18
100
AcDbLine
 10
-157.7147932056651
 20
-6.262094763092311
 30
0.0
 11
-155.5797693956014
 21
-6.262094763092311
 31
0.0
  0
LINE
  5
2CD
330
1F
100
AcDbEntity
  8
0
  6
Continuous
 62
     3
370
    18
100
AcDbLine
 10
-157.7147932056651
 20
-56.76209476309231
 30
0.0
 11
-155.5797693956014
 21
-56.76209476309231
 31
0.0
  0
ARC
  5
2CE
330
1F
100
AcDbEntity
  8
0
  6
Continuous
 62
     3
370
    18
100
AcDbCircle
 10
-157.7147932056651
 20
-6.762094763092311
 30
0.0
 40
0.5
100
AcDbArc
 50
90.0
 51
180.0
  0
ARC
  5
2CF
330
1F
100
AcDbEntity
  8
0
  6
Continuous
 62
     3
370
    18
100
AcDbCircle
 10
-157.7147932056651
 20
-56.26209476309231
 30
0.0
 40
0.5
100
AcDbArc
 50
180.0
 51
270.0
  0
ARC
  5
2D0
330
1F
100
AcDbEntity
  8
0
  6
Continuous
 62
     3
370
    18
100
AcDbCircle
 10
-149.75488844592
 20
-16.76209476309231
 30
0.0
 40
2.0
100
AcDbArc
 50
197.7446716250567
 51
270.0
  0
ARC
  5
2D1
330
1F
100
AcDbEntity
  8
0
  6
Continuous
 62
     3
370
    18
100
AcDbCircle
 10
-149.75488844592
 20
-46.26209476309231
 30
0.0
 40
2.0
100
AcDbArc
 50
90.0
 51
162.2553283749432
  0
LINE
  5
2D2
330
1F
100
AcDbEntity
  8
0
  6
Continuous
 62
     3
370
    18
100
AcDbLine
 10
-117.2147932056651
 20
-20.41209476309232
 30
0.0
 11
-158.2147932056651
 21
-20.41209476309232
 31
0.0
  0
LINE
  5
2D3
330
1F
100
AcDbEntity
  8
0
  6
Continuous
 62
     3
370
    18
100
AcDbLine
 10
-103.2147932056651
 20
-42.6120947630923
 30
0.0
 11
-158.2147932056651
 21
-42.6120947630923
 31
0.0
  0
LINE
  5
2D4
330
1F
100
AcDbEntity
  8
0
  6
Continuous
 62
     3
370
    18
100
AcDbLine
 10
-149.75488844592
 20
-18.76209476309231
 30
0.0
 11
-117.2147932056651
 21
-18.76209476309231
 31
0.0
  0
LINE
  5
2D5
330
1F
100
AcDbEntity
  8
0
  6
Continuous
 62
     3
370
    18
100
AcDbLine
 10
-103.2147932056651
 20
-44.26209476309231
 30
0.0
 11
-149.75488844592
 21
-44.26209476309231
 31
0.0
  0
LINE
  5
2D6
330
1F
100
AcDbEntity
  8
0
  6
Continuous
 62
     3
370
    18
100
AcDbLine
 10
-48.2147932056651
 20
-6.762094763092311
 30
0.0
 11
-48.2147932056651
 21
-56.26209476309231
 31
0.0
  0
LINE
  5
2D7
330
1F
100
AcDbEntity
  8
0
  6
Continuous
 62
     3
370
    18
100
AcDbLine
 10
-48.7147932056651
 20
-6.262094763092311
 30
0.0
 11
-50.84981701572883
 21
-6.262094763092311
 31
0.0
  0
LINE
  5
2D8
330
1F
100
AcDbEntity
  8
0
  6
Continuous
 62
     3
370
    18
100
AcDbLine
 10
-48.7147932056651
 20
-56.76209476309231
 30
0.0
 11
-50.84981701572883
 21
-56.76209476309231
 31
0.0
  0
ARC
  5
2D9
330
1F
100
AcDbEntity
  8
0
  6
Continuous
 62
     3
370
    18
100
AcDbCircle
 10
-48.7147932056651
 20
-6.762094763092311
 30
0.0
 40
0.5
100
AcDbArc
 50
0.0
 51
90.0
  0
ARC
  5
2DA
330
1F
100
AcDbEntity
  8
0
  6
Continuous
 62
     3
370
    18
100
AcDbCircle
 10
-48.7147932056651
 20
-56.26209476309231
 30
0.0
 40
0.5
100
AcDbArc
 50
270.0
 51
0.0
  0
ARC
  5
2DB
330
1F
100
AcDbEntity
  8
0
  6
Continuous
 62
     3
370
    18
100
AcDbCircle
 10
-56.67469796541016
 20
-16.76209476309231
 30
0.0
 40
2.0
100
AcDbArc
 50
270.0
 51
342.2553283749432
  0
ARC
  5
2DC
330
1F
100
AcDbEntity
  8
0
  6
Continuous
 62
     3
370
    18
100
AcDbCircle
 10
-56.67469796541016
 20
-46.26209476309231
 30
0.0
 40
2.0
100
AcDbArc
 50
17.7446716250568
 51
90.0
  0
LINE
  5
2DD
330
1F
100
AcDbEntity
  8
0
  6
Continuous
 62
     3
370
    18
100
AcDbLine
 10
-89.2147932056651
 20
-20.41209476309232
 30
0.0
 11
-48.2147932056651
 21
-20.41209476309232
 31
0.0
  0
LINE
  5
2DE
330
1F
100
AcDbEntity
  8
0
  6
Continuous
 62
     3
370
    18
100
AcDbLine
 10
-103.2147932056651
 20
-42.6120947630923
 30
0.0
 11
-48.2147932056651
 21
-42.6120947630923
 31
0.0
  0
LINE
  5
2DF
330
1F
100
AcDbEntity
  8
0
  6
Continuous
 62
     3
370
    18
100
AcDbLine
 10
-89.2147932056651
 20
-18.76209476309231
 30
0.0
 11
-56.67469796541016
 21
-18.76209476309231
 31
0.0
  0
LINE
  5
2E0
330
1F
100
AcDbEntity
  8
0
  6
Continuous
 62
     3
370
    18
100
AcDbLine
 10
-103.2147932056651
 20
-44.26209476309231
 30
0.0
 11
-56.67469796541016
 21
-44.26209476309231
 31
0.0
  0
LINE
  5
2E1
330
1F
100
AcDbEntity
  8
0
  6
Continuous
 62
     3
370
    18
100
AcDbLine
 10
-78.4647932056651
 20
21.98790523690768
 30
0.0
 11
-127.9647932056651
 21
21.98790523690768
 31
0.0
  0
LINE
  5
2E2
330
1F
100
AcDbEntity
  8
0
  6
Continuous
 62
     3
370
    18
100
AcDbLine
 10
-77.9647932056651
 20
21.48790523690768
 30
0.0
 11
-77.9647932056651
 21
19.35288142684395
 31
0.0
  0
LINE
  5
2E3
330
1F
100
AcDbEntity
  8
0
  6
Continuous
 62
     3
370
    18
100
AcDbLine
 10
-128.4647932056651
 20
21.48790523690768
 30
0.0
 11
-128.4647932056651
 21
19.35288142684395
 31
0.0
  0
ARC
  5
2E4
330
1F
100
AcDbEntity
  8
0
  6
Continuous
 62
     3
370
    18
100
AcDbCircle
 10
-78.4647932056651
 20
21.48790523690768
 30
0.0
 40
0.5
100
AcDbArc
 50
0.0000000000000035
 51
90.00000000000001
  0
ARC
  5
2E5
330
1F
100
AcDbEntity
  8
0
  6
Continuous
 62
     3
370
    18
100
AcDbCircle
 10
-127.9647932056651
 20
21.48790523690768
 30
0.0
 40
0.5
100
AcDbArc
 50
90.00000000000001
 51
180.0
  0
LINE
  5
2E6
330
1F
100
AcDbEntity
  8
0
  6
Continuous
 62
     3
370
    18
100
AcDbLine
 10
-90.7147932056651
 20
13.88622297515719
 30
0.0
 11
-90.7147932056651
 21
-17.26209476309231
 31
0.0
  0
LINE
  5
2E7
330
1F
100
AcDbEntity
  8
0
  6
Continuous
 62
     3
370
    18
100
AcDbLine
 10
-115.7147932056651
 20
13.88622297515719
 30
0.0
 11
-115.7147932056651
 21
-17.26209476309231
 31
0.0
  0
LINE
  5
2E8
330
1F
100
AcDbEntity
  8
0
  6
Continuous
 62
     3
370
    18
100
AcDbLine
 10
-114.3147932056651
 20
21.98790523690768
 30
0.0
 11
-114.3147932056651
 21
-17.26209476309231
 31
0.0
  0
LINE
  5
2E9
330
1F
100
AcDbEntity
  8
0
  6
Continuous
 62
     3
370
    18
100
AcDbLine
 10
-92.1147932056651
 20
21.98790523690768
 30
0.0
 11
-92.1147932056651
 21
-17.26209476309231
 31
0.0
  0
ARC
  5
2EA
330
1F
100
AcDbEntity
  8
0
  6
Continuous
 62
     3
370
    18
100
AcDbCircle
 10
-117.2147932056651
 20
-17.26209476309231
 30
0.0
 40
1.5
100
AcDbArc
 50
270.0
 51
0.0
  0
ARC
  5
2EB
330
1F
100
AcDbEntity
  8
0
  6
Continuous
 62
     3
370
    18
100
AcDbCircle
 10
-89.2147932056651
 20
-17.26209476309231
 30
0.0
 40
1.5
100
AcDbArc
 50
180.0
 51
270.0
  0
ARC
  5
2EC
330
1F
100
AcDbEntity
  8
0
  6
Continuous
 62
     3
370
    18
100
AcDbCircle
 10
-89.2147932056651
 20
-17.51209476309232
 30
0.0
 40
2.9
100
AcDbArc
 50
175.0545702821166
 51
270.0
  0
ARC
  5
2ED
330
1F
100
AcDbEntity
  8
0
  6
Continuous
 62
     3
370
    18
100
AcDbCircle
 10
-117.2147932056651
 20
-17.51209476309232
 30
0.0
 40
2.9
100
AcDbArc
 50
270.0
 51
4.945429717883419
  0
ARC
  5
2EE
330
1F
100
AcDbEntity
  8
0
  6
Continuous
 62
     3
370
    18
100
AcDbCircle
 10
-89.2147932056651
 20
13.88622297515719
 30
0.0
 40
1.5
100
AcDbArc
 50
107.4087971039176
 51
180.0
  0
ARC
  5
2EF
330
1F
100
AcDbEntity
  8
0
  6
Continuous
 62
     3
370
    18
100
AcDbCircle
 10
-117.2147932056651
 20
13.88622297515719
 30
0.0
 40
1.5
100
AcDbArc
 50
0.0
 51
72.59120289608236
  0
ARC
  5
2F0
330
1F
100
AcDbEntity
  8
0
  6
Continuous
 62
     3
370
    18
100
AcDbCircle
 10
78.73782524820024
 20
-18.76209476309231
 30
0.0
 40
12.5
100
AcDbArc
 50
180.0
 51
0.0
  0
LINE
  5
2F1
330
1F
100
AcDbEntity
  8
0
  6
DASHED2
 62
     4
370
    13
100
AcDbLine
 10
25.23782524820024
 20
60.58289059958796
 30
0.0
 11
25.23782524820024
 21
103.582890599588
 31
0.0
  0
CIRCLE
  5
2F2
330
1F
100
AcDbEntity
  8
0
  6
DASHED2
 62
     4
370
    13
100
AcDbCircle
 10
78.73782524820024
 20
82.08289059958796
 30
0.0
 40
12.5
  0
LINE
  5
2F3
330
1F
100
AcDbEntity
  8
0
  6
DASHED2
 62
     4
370
    13
100
AcDbLine
 10
72.98978210292026
 20
93.18289059958795
 30
0.0
 11
23.73782524820024
 21
93.18289059958795
 31
0.0
  0
LINE
  5
2F4
330
1F
100
AcDbEntity
  8
0
  6
DASHED2
 62
     4
370
    13
100
AcDbLine
 10
72.98978210292026
 20
70.98289059958796
 30
0.0
 11
23.73782524820024
 21
70.98289059958796
 31
0.0
  0
LINE
  5
2F5
330
1F
100
AcDbEntity
  8
0
  6
DASHED2
 62
     4
370
    13
100
AcDbLine
 10
132.2378252482002
 20
60.58289059958796
 30
0.0
 11
132.2378252482002
 21
103.582890599588
 31
0.0
  0
LINE
  5
2F6
330
1F
100
AcDbEntity
  8
0
  6
DASHED2
 62
     4
370
    13
100
AcDbLine
 10
84.48586839348022
 20
93.18289059958795
 30
0.0
 11
133.7378252482002
 21
93.18289059958795
 31
0.0
  0
LINE
  5
2F7
330
1F
100
AcDbEntity
  8
0
  6
DASHED2
 62
     4
370
    13
100
AcDbLine
 10
84.48586839348022
 20
70.98289059958796
 30
0.0
 11
133.7378252482002
 21
70.98289059958796
 31
0.0
  0
LINE
  5
2F8
330
1F
100
AcDbEntity
  8
0
  6
DASHED2
 62
     4
370
    13
100
AcDbLine
 10
25.23782524820024
 20
-53.01209476309231
 30
0.0
 11
25.23782524820024
 21
-10.01209476309231
 31
0.0
  0
LINE
  5
2F9
330
1F
100
AcDbEntity
  8
0
  6
DASHED2
 62
     4
370
    13
100
AcDbLine
 10
64.73782524820024
 20
-20.41209476309232
 30
0.0
 11
23.73782524820024
 21
-20.41209476309232
 31
0.0
  0
LINE
  5
2FA
330
1F
100
AcDbEntity
  8
0
  6
DASHED2
 62
     4
370
    13
100
AcDbLine
 10
78.73782524820024
 20
-42.6120947630923
 30
0.0
 11
23.73782524820024
 21
-42.6120947630923
 31
0.0
  0
LINE
  5
2FB
330
1F
100
AcDbEntity
  8
0
  6
DASHED2
 62
     4
370
    13
100
AcDbLine
 10
132.2378252482002
 20
-53.01209476309231
 30
0.0
 11
132.2378252482002
 21
-10.01209476309231
 31
0.0
  0
LINE
  5
2FC
330
1F
100
AcDbEntity
  8
0
  6
DASHED2
 62
     4
370
    13
100
AcDbLine
 10
92.73782524820024
 20
-20.41209476309232
 30
0.0
 11
133.7378252482002
 21
-20.41209476309232
 31
0.0
  0
LINE
  5
2FD
330
1F
100
AcDbEntity
  8
0
  6
DASHED2
 62
     4
370
    13
100
AcDbLine
 10
78.73782524820024
 20
-42.6120947630923
 30
0.0
 11
133.7378252482002
 21
-42.6120947630923
 31
0.0
  0
LINE
  5
2FE
330
1F
100
AcDbEntity
  8
0
  6
DASHED2
 62
     4
370
    13
100
AcDbLine
 10
57.23782524820025
 20
20.48790523690769
 30
0.0
 11
100.2378252482002
 21
20.48790523690769
 31
0.0
  0
LINE
  5
2FF
330
1F
100
AcDbEntity
  8
0
  6
DASHED2
 62
     4
370
    13
100
AcDbLine
 10
67.63782524820024
 20
21.98790523690769
 30
0.0
 11
67.63782524820024
 21
-17.26209476309231
 31
0.0
  0
LINE
  5
300
330
1F
100
AcDbEntity
  8
0
  6
DASHED2
 62
     4
370
    13
100
AcDbLine
 10
89.83782524820023
 20
21.98790523690769
 30
0.0
 11
89.83782524820023
 21
-17.26209476309231
 31
0.0
  0
ARC
  5
301
330
1F
100
AcDbEntity
  8
0
  6
DASHED2
 62
     4
370
    13
100
AcDbCircle
 10
92.73782524820024
 20
-17.51209476309232
 30
0.0
 40
2.9
100
AcDbArc
 50
175.0545702821166
 51
270.0
  0
ARC
  5
302
330
1F
100
AcDbEntity
  8
0
  6
DASHED2
 62
     4
370
    13
100
AcDbCircle
 10
64.73782524820024
 20
-17.51209476309232
 30
0.0
 40
2.9
100
AcDbArc
 50
270.0
 51
4.945429717883419
  0
LINE
  5
303
330
1F
100
AcDbEntity
  8
0
  6
DASHED2
 62
     4
370
    13
100
AcDbLine
 10
-34.43395328470172
 20
60.58289059958796
 30
0.0
 11
-34.43395328470172
 21
103.582890599588
 31
0.0
  0
CIRCLE
  5
304
330
1F
100
AcDbEntity
  8
0
  6
DASHED2
 62
     4
370
    13
100
AcDbCircle
 10
-87.93395328470172
 20
82.08289059958796
 30
0.0
 40
12.5
  0
LINE
  5
305
330
1F
100
AcDbEntity
  8
0
  6
DASHED2
 62
     4
370
    13
100
AcDbLine
 10
-82.18591013942176
 20
93.18289059958795
 30
0.0
 11
-32.93395328470172
 21
93.18289059958795
 31
0.0
  0
LINE
  5
306
330
1F
100
AcDbEntity
  8
0
  6
DASHED2
 62
     4
370
    13
100
AcDbLine
 10
-82.18591013942176
 20
70.98289059958796
 30
0.0
 11
-32.93395328470172
 21
70.98289059958796
 31
0.0
  0
LINE
  5
307
330
1F
100
AcDbEntity
  8
0
  6
DASHED2
 62
     4
370
    13
100
AcDbLine
 10
-156.7147932056651
 20
-53.01209476309231
 30
0.0
 11
-156.7147932056651
 21
-10.01209476309231
 31
0.0
  0
LINE
  5
308
330
1F
100
AcDbEntity
  8
0
  6
DASHED2
 62
     4
370
    13
100
AcDbLine
 10
-49.7147932056651
 20
-53.01209476309231
 30
0.0
 11
-49.7147932056651
 21
-10.01209476309231
 31
0.0
  0
LINE
  5
309
330
1F
100
AcDbEntity
  8
0
  6
DASHED2
 62
     4
370
    13
100
AcDbLine
 10
-124.7147932056651
 20
20.48790523690768
 30
0.0
 11
-81.7147932056651
 21
20.48790523690768
 31
0.0
  0
LINE
  5
30A
330
1F
100
AcDbEntity
  8
Layer0016
  6
Continuous
 62
     3
370
    18
100
AcDbLine
 10
30.29288171354666
 20
67.94244205379553
 30
0.0
 11
26.84906113186366
 21
57.18050273603607
 31
0.0
  0
LINE
  5
30B
330
1F
100
AcDbEntity
  8
Layer0016
  6
Continuous
 62
     3
370
    18
100
AcDbLine
 10
26.84906113186366
 20
106.9852784631398
 30
0.0
 11
30.29288171354664
 21
96.22333914538041
 31
0.0
  0
ARC
  5
30C
330
1F
100
AcDbEntity
  8
Layer0016
  6
Continuous
 62
     3
370
    18
100
AcDbCircle
 10
26.37284905826397
 20
57.33289059958796
 30
0.0
 40
0.5
100
AcDbArc
 50
270.0
 51
342.2553283749428
  0
ARC
  5
30D
330
1F
100
AcDbEntity
  8
Layer0016
  6
Continuous
 62
     3
370
    18
100
AcDbCircle
 10
26.37284905826397
 20
106.832890599588
 30
0.0
 40
0.5
100
AcDbArc
 50
17.74467162505718
 51
90.0
  0
LINE
  5
30E
330
1F
100
AcDbEntity
  8
Layer0016
  6
Continuous
 62
     3
370
    18
100
AcDbLine
 10
127.1827687828538
 20
67.94244205379553
 30
0.0
 11
130.6265893645368
 21
57.18050273603607
 31
0.0
  0
LINE
  5
30F
330
1F
100
AcDbEntity
  8
Layer0016
  6
Continuous
 62
     3
370
    18
100
AcDbLine
 10
130.6265893645368
 20
106.9852784631398
 30
0.0
 11
127.1827687828538
 21
96.22333914538041
 31
0.0
  0
ARC
  5
310
330
1F
100
AcDbEntity
  8
Layer0016
  6
Continuous
 62
     3
370
    18
100
AcDbCircle
 10
131.1028014381365
 20
57.33289059958796
 30
0.0
 40
0.5
100
AcDbArc
 50
197.7446716250572
 51
270.0
  0
ARC
  5
311
330
1F
100
AcDbEntity
  8
Layer0016
  6
Continuous
 62
     3
370
    18
100
AcDbCircle
 10
131.1028014381365
 20
106.832890599588
 30
0.0
 40
0.5
100
AcDbArc
 50
90.0
 51
162.2553283749428
  0
LINE
  5
312
330
1F
100
AcDbEntity
  8
Layer0016
  6
Continuous
 62
     3
370
    18
100
AcDbLine
 10
30.29288171354666
 20
-45.65254330888474
 30
0.0
 11
26.84906113186366
 21
-56.41448262664419
 31
0.0
  0
LINE
  5
313
330
1F
100
AcDbEntity
  8
Layer0016
  6
Continuous
 62
     3
370
    18
100
AcDbLine
 10
26.84906113186366
 20
-6.609706899540416
 30
0.0
 11
30.29288171354664
 21
-17.37164621729987
 31
0.0
  0
ARC
  5
314
330
1F
100
AcDbEntity
  8
Layer0016
  6
Continuous
 62
     3
370
    18
100
AcDbCircle
 10
26.37284905826397
 20
-56.2620947630923
 30
0.0
 40
0.5
100
AcDbArc
 50
270.0
 51
342.2553283749428
  0
ARC
  5
315
330
1F
100
AcDbEntity
  8
Layer0016
  6
Continuous
 62
     3
370
    18
100
AcDbCircle
 10
26.37284905826397
 20
-6.762094763092311
 30
0.0
 40
0.5
100
AcDbArc
 50
17.74467162505718
 51
90.0
  0
LINE
  5
316
330
1F
100
AcDbEntity
  8
Layer0016
  6
Continuous
 62
     3
370
    18
100
AcDbLine
 10
127.1827687828538
 20
-45.65254330888474
 30
0.0
 11
130.6265893645368
 21
-56.41448262664419
 31
0.0
  0
LINE
  5
317
330
1F
100
AcDbEntity
  8
Layer0016
  6
Continuous
 62
     3
370
    18
100
AcDbLine
 10
130.6265893645368
 20
-6.609706899540416
 30
0.0
 11
127.1827687828538
 21
-17.37164621729987
 31
0.0
  0
ARC
  5
318
330
1F
100
AcDbEntity
  8
Layer0016
  6
Continuous
 62
     3
370
    18
100
AcDbCircle
 10
131.1028014381365
 20
-56.2620947630923
 30
0.0
 40
0.5
100
AcDbArc
 50
197.7446716250572
 51
270.0
  0
ARC
  5
319
330
1F
100
AcDbEntity
  8
Layer0016
  6
Continuous
 62
     3
370
    18
100
AcDbCircle
 10
131.1028014381365
 20
-6.762094763092311
 30
0.0
 40
0.5
100
AcDbArc
 50
90.0
 51
162.2553283749428
  0
LINE
  5
31A
330
1F
100
AcDbEntity
  8
Layer0016
  6
Continuous
 62
     3
370
    18
100
AcDbLine
 10
53.83543738464835
 20
18.87666935324426
 30
0.0
 11
65.18660620013627
 21
15.31751457968067
 31
0.0
  0
LINE
  5
31B
330
1F
100
AcDbEntity
  8
Layer0016
  6
Continuous
 62
     3
370
    18
100
AcDbLine
 10
92.28904429626421
 20
15.31751457968067
 30
0.0
 11
103.6402131117521
 21
18.87666935324426
 31
0.0
  0
ARC
  5
31C
330
1F
100
AcDbEntity
  8
Layer0016
  6
Continuous
 62
     3
370
    18
100
AcDbCircle
 10
53.98782524820025
 20
19.35288142684396
 30
0.0
 40
0.5
100
AcDbArc
 50
180.0
 51
252.2553283749428
  0
ARC
  5
31D
330
1F
100
AcDbEntity
  8
Layer0016
  6
Continuous
 62
     3
370
    18
100
AcDbCircle
 10
103.4878252482002
 20
19.35288142684396
 30
0.0
 40
0.5
100
AcDbArc
 50
287.7446716250572
 51
0.0
  0
LINE
  5
31E
330
1F
100
AcDbEntity
  8
Layer0016
  6
Continuous
 62
     3
370
    18
100
AcDbLine
 10
-39.48900975004813
 20
67.94244205379553
 30
0.0
 11
-36.04518916836515
 21
57.18050273603607
 31
0.0
  0
LINE
  5
31F
330
1F
100
AcDbEntity
  8
Layer0016
  6
Continuous
 62
     3
370
    18
100
AcDbLine
 10
-36.04518916836515
 20
106.9852784631398
 30
0.0
 11
-39.48900975004813
 21
96.22333914538041
 31
0.0
  0
ARC
  5
320
330
1F
100
AcDbEntity
  8
Layer0016
  6
Continuous
 62
     3
370
    18
100
AcDbCircle
 10
-35.56897709476545
 20
57.33289059958796
 30
0.0
 40
0.5
100
AcDbArc
 50
197.7446716250572
 51
270.0
  0
ARC
  5
321
330
1F
100
AcDbEntity
  8
Layer0016
  6
Continuous
 62
     3
370
    18
100
AcDbCircle
 10
-35.56897709476545
 20
106.832890599588
 30
0.0
 40
0.5
100
AcDbArc
 50
90.0
 51
162.2553283749428
  0
LINE
  5
322
330
1F
100
AcDbEntity
  8
Layer0016
  6
Continuous
 62
     3
370
    18
100
AcDbLine
 10
-151.6597367403187
 20
-45.65254330888476
 30
0.0
 11
-155.1035573220017
 21
-56.4144826266442
 31
0.0
  0
LINE
  5
323
330
1F
100
AcDbEntity
  8
Layer0016
  6
Continuous
 62
     3
370
    18
100
AcDbLine
 10
-155.1035573220017
 20
-6.609706899540416
 30
0.0
 11
-151.6597367403187
 21
-17.37164621729989
 31
0.0
  0
ARC
  5
324
330
1F
100
AcDbEntity
  8
Layer0016
  6
Continuous
 62
     3
370
    18
100
AcDbCircle
 10
-155.5797693956014
 20
-56.26209476309231
 30
0.0
 40
0.5
100
AcDbArc
 50
270.0
 51
342.2553283749428
  0
ARC
  5
325
330
1F
100
AcDbEntity
  8
Layer0016
  6
Continuous
 62
     3
370
    18
100
AcDbCircle
 10
-155.5797693956014
 20
-6.762094763092311
 30
0.0
 40
0.5
100
AcDbArc
 50
17.74467162505718
 51
90.0
  0
LINE
  5
326
330
1F
100
AcDbEntity
  8
Layer0016
  6
Continuous
 62
     3
370
    18
100
AcDbLine
 10
-54.76984967101151
 20
-45.65254330888476
 30
0.0
 11
-51.32602908932853
 21
-56.4144826266442
 31
0.0
  0
LINE
  5
327
330
1F
100
AcDbEntity
  8
Layer0016
  6
Continuous
 62
     3
370
    18
100
AcDbLine
 10
-51.32602908932853
 20
-6.609706899540416
 30
0.0
 11
-54.76984967101151
 21
-17.37164621729989
 31
0.0
  0
ARC
  5
328
330
1F
100
AcDbEntity
  8
Layer0016
  6
Continuous
 62
     3
370
    18
100
AcDbCircle
 10
-50.84981701572883
 20
-56.26209476309231
 30
0.0
 40
0.5
100
AcDbArc
 50
197.7446716250572
 51
270.0
  0
ARC
  5
329
330
1F
100
AcDbEntity
  8
Layer0016
  6
Continuous
 62
     3
370
    18
100
AcDbCircle
 10
-50.84981701572883
 20
-6.762094763092311
 30
0.0
 40
0.5
100
AcDbArc
 50
90.0
 51
162.2553283749428
  0
LINE
  5
32A
330
1F
100
AcDbEntity
  8
Layer0016
  6
Continuous
 62
     3
370
    18
100
AcDbLine
 10
-128.117181069217
 20
18.87666935324425
 30
0.0
 11
-116.7660122537291
 21
15.31751457968066
 31
0.0
  0
LINE
  5
32B
330
1F
100
AcDbEntity
  8
Layer0016
  6
Continuous
 62
     3
370
    18
100
AcDbLine
 10
-78.31240534211321
 20
18.87666935324425
 30
0.0
 11
-89.66357415760112
 21
15.31751457968066
 31
0.0
  0
ARC
  5
32C
330
1F
100
AcDbEntity
  8
Layer0016
  6
Continuous
 62
     3
370
    18
100
AcDbCircle
 10
-127.9647932056651
 20
19.35288142684395
 30
0.0
 40
0.5
100
AcDbArc
 50
180.0
 51
252.2553283749428
  0
ARC
  5
32D
330
1F
100
AcDbEntity
  8
Layer0016
  6
Continuous
 62
     3
370
    18
100
AcDbCircle
 10
-78.4647932056651
 20
19.35288142684395
 30
0.0
 40
0.5
100
AcDbArc
 50
287.7446716250572
 51
0.0
  0
INSERT
  5
32E
330
1F
100
AcDbEntity
  8
ZUWAKU
  6
Continuous
100
AcDbBlockReference
  2
DC_GROUP_COM-1195THJ1-00S304A_1
 10
0.0
 20
0.0
 30
0.0
  0
INSERT
  5
32F
330
1F
100
AcDbEntity
  8
ZUWAKU
  6
Continuous
100
AcDbBlockReference
  2
DC_GROUP_COM-1195THJ1-00S304A_2
 10
0.0
 20
0.0
 30
0.0
  0
INSERT
  5
330
330
1F
100
AcDbEntity
  8
ZUWAKU
  6
Continuous
100
AcDbBlockReference
  2
DC_GROUP_COM-1195THJ1-00S304A_3
 10
0.0
 20
0.0
 30
0.0
  0
INSERT
  5
331
330
1F
100
AcDbEntity
  8
ZUWAKU
  6
Continuous
100
AcDbBlockReference
  2
DC_GROUP_COM-1195THJ1-00S304A_4
 10
0.0
 20
0.0
 30
0.0
  0
INSERT
  5
332
330
1F
100
AcDbEntity
  8
ZUWAKU
  6
Continuous
100
AcDbBlockReference
  2
DC_GROUP_COM-1195THJ1-00S304A_5
 10
0.0
 20
0.0
 30
0.0
  0
INSERT
  5
333
330
1F
100
AcDbEntity
  8
0
  6
Continuous
100
AcDbBlockReference
  2
DC_GROUP_COM-1195THJ1-00S304A_6
 10
0.0
 20
0.0
 30
0.0
  0
INSERT
  5
334
330
1F
100
AcDbEntity
  8
0
  6
Continuous
100
AcDbBlockReference
  2
DC_GROUP_COM-1195THJ1-00S304A_7
 10
0.0
 20
0.0
 30
0.0
  0
DIMENSION
  5
335
330
1F
100
AcDbEntity
  8
0
  6
Continuous
370
    13
100
AcDbDimension
280
     0
  2
*D8
 10
3.874870905326134
 20
107.332890599588
 30
0.0
 11
3.874870905326134
 21
82.08289059958796
 31
0.0
 70
   160
  1
\W0.5769;φ<>
 71
     8
 42
-1.0
 73
     0
 74
     0
 75
     0
  3
dc_Rotated
100
AcDbAlignedDimension
 13
23.73782524820024
 23
56.83289059958796
 33
0.0
 14
23.73782524820024
 24
107.332890599588
 34
0.0
 50
90.0
100
AcDbRotatedDimension
1001
ACAD
1000
DSTYLE
1002
{
1070
   144
1040
1.0
1070
   274
1070
     4
1070
    41
1040
3.000001907348633
1070
    79
1070
     2
1070
   343
1005
168
1070
   344
1005
168
1070
   176
1070
     2
1070
   177
1070
     2
1070
   178
1070
     4
1070
   271
1070
     2
1070
    44
1040
1.0
1070
    42
1040
1.0
1070
   147
1040
1.0
1070
   173
1070
     1
1070
    77
1070
     3
1070
    73
1070
     0
1070
   172
1070
     1
1070
    74
1070
     0
1070
   283
1070
     0
1070
   340
1005
144
1070
   140
1040
4.5
1070
   284
1070
     8
1070
   288
1070
     1
1070
    78
1070
     8
1070
    90
1070
     1
1002
}
  0
DIMENSION
  5
337
330
1F
100
AcDbEntity
  8
0
  6
Continuous
370
    13
100
AcDbDimension
280
     0
  2
*D9
 10
26.37284905826397
 20
106.832890599588
 30
0.0
 11
33.56041891809762
 21
108.5691186239708
 31
0.0
 70
   164
  1
R0.5
 71
     8
 42
-1.0
 73
     0
 74
     0
 75
     0
  3
dc_Radial06
100
AcDbRadialDimension
 15
26.72134264442154
 25
107.1914323968823
 35
0.0
 40
0.0
1001
ACAD
1000
DSTYLE
1002
{
1070
   144
1040
1.0
1070
   274
1070
     4
1070
    41
1040
3.000001907348633
1070
    79
1070
     2
1070
   343
1005
168
1070
   344
1005
168
1070
   176
1070
     2
1070
   177
1070
     2
1070
   178
1070
     4
1070
   271
1070
     2
1070
    44
1040
1.0
1070
    42
1040
1.0
1070
   147
1040
1.0
1070
   173
1070
     1
1070
    77
1070
     2
1070
   283
1070
     0
1070
   340
1005
144
1070
   140
1040
4.5
1070
   284
1070
     8
1070
   288
1070
     1
1070
    78
1070
     8
1070
    90
1070
     1
1002
}
  0
DIMENSION
  5
339
330
1F
100
AcDbEntity
  8
0
  6
Continuous
370
    13
100
AcDbDimension
280
     0
  2
*D10
 10
26.73782524820024
 20
50.0636340733843
 30
0.0
 11
18.71504524820023
 21
50.0636340733843
 31
0.0
 70
   160
 71
     8
 42
-1.0
 73
     0
 74
     0
 75
     0
  3
dc_Rotated
100
AcDbAlignedDimension
 13
23.73782524820024
 23
56.33289059958796
 33
0.0
 14
26.73782524820024
 24
57.00462646100565
 34
0.0
100
AcDbRotatedDimension
1001
ACAD
1000
DSTYLE
1002
{
1070
   144
1040
1.0
1070
   274
1070
     4
1070
    41
1040
3.000001907348633
1070
    79
1070
     2
1070
   343
1005
168
1070
   344
1005
168
1070
   176
1070
     2
1070
   177
1070
     2
1070
   178
1070
     4
1070
   271
1070
     2
1070
    44
1040
1.0
1070
    42
1040
1.0
1070
   147
1040
1.0
1070
   173
1070
     1
1070
    77
1070
     3
1070
    73
1070
     0
1070
   172
1070
     1
1070
    74
1070
     0
1070
   283
1070
     0
1070
   340
1005
144
1070
   140
1040
4.5
1070
   284
1070
     8
1070
   288
1070
     1
1070
    78
1070
     8
1070
    90
1070
     1
1002
}
  0
INSERT
  5
33A
330
1F
100
AcDbEntity
  8
0
  6
Continuous
100
AcDbBlockReference
  2
DC_GROUP_COM-1195THJ1-00S304A_8
 10
0.0
 20
0.0
 30
0.0
  0
INSERT
  5
33B
330
1F
100
AcDbEntity
  8
0
  6
Continuous
100
AcDbBlockReference
  2
DC_GROUP_COM-1195THJ1-00S304A_9
 10
0.0
 20
0.0
 30
0.0
  0
INSERT
  5
33C
330
1F
100
AcDbEntity
  8
0
  6
Continuous
100
AcDbBlockReference
  2
DC_GROUP_COM-1195THJ1-00S304A_10
 10
0.0
 20
0.0
 30
0.0
  0
INSERT
  5
33D
330
1F
100
AcDbEntity
  8
0
  6
Continuous
100
AcDbBlockReference
  2
DC_GROUP_COM-1195THJ1-00S304A_11
 10
0.0
 20
0.0
 30
0.0
  0
INSERT
  5
33E
330
1F
100
AcDbEntity
  8
0
  6
Continuous
100
AcDbBlockReference
  2
DC_GROUP_COM-1195THJ1-00S304A_12
 10
0.0
 20
0.0
 30
0.0
  0
DIMENSION
  5
33F
330
1F
100
AcDbEntity
  8
0
  6
Continuous
370
    13
100
AcDbDimension
280
     0
  2
*D16
 10
26.73782524820024
 20
-63.53135128929596
 30
0.0
 11
18.71504524820023
 21
-63.53135128929596
 31
0.0
 70
   160
 71
     8
 42
-1.0
 73
     0
 74
     0
 75
     0
  3
dc_Rotated
100
AcDbAlignedDimension
 13
23.73782524820024
 23
-57.2620947630923
 33
0.0
 14
26.73782524820024
 24
-56.59035890167463
 34
0.0
100
AcDbRotatedDimension
1001
ACAD
1000
DSTYLE
1002
{
1070
   144
1040
1.0
1070
   274
1070
     4
1070
    41
1040
3.000001907348633
1070
    79
1070
     2
1070
   343
1005
168
1070
   344
1005
168
1070
   176
1070
     2
1070
   177
1070
     2
1070
   178
1070
     4
1070
   271
1070
     2
1070
    44
1040
1.0
1070
    42
1040
1.0
1070
   147
1040
1.0
1070
   173
1070
     1
1070
    77
1070
     3
1070
    73
1070
     0
1070
   172
1070
     1
1070
    74
1070
     0
1070
   283
1070
     0
1070
   340
1005
144
1070
   140
1040
4.5
1070
   284
1070
     8
1070
   288
1070
     1
1070
    78
1070
     8
1070
    90
1070
     1
1002
}
  0
INSERT
  5
340
330
1F
100
AcDbEntity
  8
0
  6
Continuous
100
AcDbBlockReference
  2
DC_GROUP_COM-1195THJ1-00S304A_13
 10
0.0
 20
0.0
 30
0.0
  0
INSERT
  5
341
330
1F
100
AcDbEntity
  8
0
  6
Continuous
100
AcDbBlockReference
  2
DC_GROUP_COM-1195THJ1-00S304A_14
 10
0.0
 20
0.0
 30
0.0
  0
INSERT
  5
342
330
1F
100
AcDbEntity
  8
0
  6
Continuous
100
AcDbBlockReference
  2
DC_GROUP_COM-1195THJ1-00S304A_15
 10
0.0
 20
0.0
 30
0.0
  0
INSERT
  5
343
330
1F
100
AcDbEntity
  8
0
  6
Continuous
100
AcDbBlockReference
  2
DC_GROUP_COM-1195THJ1-00S304A_16
 10
0.0
 20
0.0
 30
0.0
  0
INSERT
  5
344
330
1F
100
AcDbEntity
  8
0
  6
Continuous
100
AcDbBlockReference
  2
DC_GROUP_COM-1195THJ1-00S304A_17
 10
0.0
 20
0.0
 30
0.0
  0
INSERT
  5
345
330
1F
100
AcDbEntity
  8
0
  6
Continuous
100
AcDbBlockReference
  2
DC_GROUP_COM-1195THJ1-00S304A_18
 10
0.0
 20
0.0
 30
0.0
  0
DIMENSION
  5
346
330
1F
100
AcDbEntity
  8
0
  6
Continuous
370
    13
100
AcDbDimension
280
     0
  2
*D23
 10
-13.07099894182763
 20
107.332890599588
 30
0.0
 11
-13.07099894182763
 21
82.08289059958796
 31
0.0
 70
   160
  1
\W0.5769;φ<>
 71
     8
 42
-1.0
 73
     0
 74
     0
 75
     0
  3
dc_Rotated
100
AcDbAlignedDimension
 13
-32.93395328470172
 23
56.83289059958796
 33
0.0
 14
-32.93395328470172
 24
107.332890599588
 34
0.0
 50
90.0
100
AcDbRotatedDimension
1001
ACAD
1000
DSTYLE
1002
{
1070
   144
1040
1.0
1070
   274
1070
     4
1070
    41
1040
3.000001907348633
1070
    79
1070
     2
1070
   343
1005
168
1070
   344
1005
168
1070
   176
1070
     2
1070
   177
1070
     2
1070
   178
1070
     4
1070
   271
1070
     2
1070
    44
1040
1.0
1070
    42
1040
1.0
1070
   147
1040
1.0
1070
   173
1070
     1
1070
    77
1070
     3
1070
    73
1070
     0
1070
   172
1070
     1
1070
    74
1070
     0
1070
   283
1070
     0
1070
   340
1005
144
1070
   140
1040
4.5
1070
   284
1070
     8
1070
   288
1070
     1
1070
    78
1070
     8
1070
    90
1070
     1
1002
}
  0
DIMENSION
  5
347
330
1F
100
AcDbEntity
  8
0
  6
Continuous
370
    13
100
AcDbDimension
280
     0
  2
*D24
 10
-35.56897709476545
 20
106.832890599588
 30
0.0
 11
-44.88130975574837
 21
110.7676708412493
 31
0.0
 70
   164
  1
R0.5
 71
     8
 42
-1.0
 73
     0
 74
     0
 75
     0
  3
dc_Radial06
100
AcDbRadialDimension
 15
-35.90529616448215
 25
107.1914323968823
 35
0.0
 40
0.0
1001
ACAD
1000
DSTYLE
1002
{
1070
   144
1040
1.0
1070
   274
1070
     4
1070
    41
1040
3.000001907348633
1070
    79
1070
     2
1070
   343
1005
168
1070
   344
1005
168
1070
   176
1070
     2
1070
   177
1070
     2
1070
   178
1070
     4
1070
   271
1070
     2
1070
    44
1040
1.0
1070
    42
1040
1.0
1070
   147
1040
1.0
1070
   173
1070
     1
1070
    77
1070
     2
1070
   283
1070
     0
1070
   340
1005
144
1070
   140
1040
4.5
1070
   284
1070
     8
1070
   288
1070
     1
1070
    78
1070
     8
1070
    90
1070
     1
1002
}
  0
DIMENSION
  5
348
330
1F
100
AcDbEntity
  8
0
  6
Continuous
370
    13
100
AcDbDimension
280
     0
  2
*D25
 10
-35.93395328470172
 20
50.0636340733843
 30
0.0
 11
-27.91117328470171
 21
50.0636340733843
 31
0.0
 70
   160
 71
     8
 42
-1.0
 73
     0
 74
     0
 75
     0
  3
dc_Rotated
100
AcDbAlignedDimension
 13
-32.93395328470172
 23
56.33289059958796
 33
0.0
 14
-35.93395328470172
 24
57.00462646100565
 34
0.0
100
AcDbRotatedDimension
1001
ACAD
1000
DSTYLE
1002
{
1070
   144
1040
1.0
1070
   274
1070
     4
1070
    41
1040
3.000001907348633
1070
    79
1070
     2
1070
   343
1005
168
1070
   344
1005
168
1070
   176
1070
     2
1070
   177
1070
     2
1070
   178
1070
     4
1070
   271
1070
     2
1070
    44
1040
1.0
1070
    42
1040
1.0
1070
   147
1040
1.0
1070
   173
1070
     1
1070
    77
1070
     3
1070
    73
1070
     0
1070
   172
1070
     1
1070
    74
1070
     0
1070
   283
1070
     0
1070
   340
1005
144
1070
   140
1040
4.5
1070
   284
1070
     8
1070
   288
1070
     1
1070
    78
1070
     8
1070
    90
1070
     1
1002
}
  0
INSERT
  5
349
330
1F
100
AcDbEntity
  8
0
  6
Continuous
100
AcDbBlockReference
  2
DC_GROUP_COM-1195THJ1-00S304A_19
 10
0.0
 20
0.0
 30
0.0
  0
DIMENSION
  5
34A
330
1F
100
AcDbEntity
  8
0
  6
Continuous
370
    13
100
AcDbDimension
280
     0
  2
*D27
 10
133.7378252482002
 20
45.17201254452056
 30
0.0
 11
78.73782524820024
 21
45.17201254452056
 31
0.0
 70
   160
 71
     8
 42
-1.0
 73
     0
 74
     0
 75
     0
  3
dc_Rotated
100
AcDbAlignedDimension
 13
23.73782524820024
 23
55.33289059958796
 33
0.0
 14
133.7378252482002
 24
57.33289059958796
 34
0.0
100
AcDbRotatedDimension
1001
ACAD
1000
DSTYLE
1002
{
1070
   144
1040
1.0
1070
   274
1070
     4
1070
    41
1040
3.000001907348633
1070
    79
1070
     2
1070
   343
1005
168
1070
   344
1005
168
1070
   176
1070
     2
1070
   177
1070
     2
1070
   178
1070
     4
1070
   271
1070
     2
1070
    44
1040
1.0
1070
    42
1040
1.0
1070
   147
1040
1.0
1070
   173
1070
     1
1070
    77
1070
     3
1070
    73
1070
     0
1070
   172
1070
     1
1070
    74
1070
     0
1070
   283
1070
     0
1070
   340
1005
144
1070
   140
1040
4.5
1070
   284
1070
     8
1070
   288
1070
     1
1070
    78
1070
     8
1070
    90
1070
     1
1002
}
  0
DIMENSION
  5
34B
330
1F
100
AcDbEntity
  8
0
  6
Continuous
370
    13
100
AcDbDimension
280
     0
  2
*D28
 10
78.73782524820024
 20
114.8623218403747
 30
0.0
 11
51.23782524820024
 21
114.8623218403747
 31
0.0
 70
   160
 71
     8
 42
-1.0
 73
     0
 74
     0
 75
     0
  3
dc_Rotated
100
AcDbAlignedDimension
 13
23.73782524820024
 23
106.832890599588
 33
0.0
 14
78.73782524820024
 24
109.5394368876823
 34
0.0
100
AcDbRotatedDimension
1001
ACAD
1000
DSTYLE
1002
{
1070
   144
1040
1.0
1070
   274
1070
     4
1070
    41
1040
3.000001907348633
1070
    79
1070
     2
1070
   343
1005
168
1070
   344
1005
168
1070
   176
1070
     2
1070
   177
1070
     2
1070
   178
1070
     4
1070
   271
1070
     2
1070
    44
1040
1.0
1070
    42
1040
1.0
1070
   147
1040
1.0
1070
   173
1070
     1
1070
    77
1070
     3
1070
    73
1070
     0
1070
   172
1070
     1
1070
    74
1070
     0
1070
   283
1070
     0
1070
   340
1005
144
1070
   140
1040
4.5
1070
   284
1070
     8
1070
   288
1070
     1
1070
    78
1070
     8
1070
    90
1070
     1
1002
}
  0
DIMENSION
  5
34C
330
1F
100
AcDbEntity
  8
0
  6
Continuous
370
    13
100
AcDbDimension
280
     0
  2
*D29
 10
133.7378252482002
 20
114.8623218403747
 30
0.0
 11
106.2378252482002
 21
114.8623218403747
 31
0.0
 70
   160
 71
     8
 42
-1.0
 73
     0
 74
     0
 75
     0
  3
dc_Rotated
100
AcDbAlignedDimension
 13
78.73782524820024
 23
109.5394368876823
 33
0.0
 14
133.7378252482002
 24
106.832890599588
 34
0.0
100
AcDbRotatedDimension
1001
ACAD
1000
DSTYLE
1002
{
1070
   144
1040
1.0
1070
   274
1070
     4
1070
    41
1040
3.000001907348633
1070
    79
1070
     2
1070
   343
1005
168
1070
   344
1005
168
1070
   176
1070
     2
1070
   177
1070
     2
1070
   178
1070
     4
1070
   271
1070
     2
1070
    44
1040
1.0
1070
    42
1040
1.0
1070
   147
1040
1.0
1070
   173
1070
     1
1070
    77
1070
     3
1070
    73
1070
     0
1070
   172
1070
     1
1070
    74
1070
     0
1070
   283
1070
     0
1070
   340
1005
144
1070
   140
1040
4.5
1070
   284
1070
     8
1070
   288
1070
     1
1070
    78
1070
     8
1070
    90
1070
     1
1002
}
  0
DIMENSION
  5
34D
330
1F
100
AcDbEntity
  8
0
  6
Continuous
370
    13
100
AcDbDimension
280
     0
  2
*D30
 10
148.4413965087282
 20
21.98790523690769
 30
0.0
 11
148.4413965087282
 21
-4.762094763092311
 31
0.0
 70
   160
 71
     8
 42
-1.0
 73
     0
 74
     0
 75
     0
  3
dc_Rotated
100
AcDbAlignedDimension
 13
135.9984063630914
 23
-31.51209476309231
 33
0.0
 14
103.4878252482002
 24
21.98790523690769
 34
0.0
 50
90.0
100
AcDbRotatedDimension
1001
ACAD
1000
DSTYLE
1002
{
1070
   144
1040
1.0
1070
   274
1070
     4
1070
    41
1040
3.000001907348633
1070
    79
1070
     2
1070
   343
1005
168
1070
   344
1005
168
1070
   176
1070
     2
1070
   177
1070
     2
1070
   178
1070
     4
1070
   271
1070
     2
1070
    44
1040
1.0
1070
    42
1040
1.0
1070
   147
1040
1.0
1070
   173
1070
     1
1070
    77
1070
     3
1070
    73
1070
     0
1070
   172
1070
     1
1070
    74
1070
     0
1070
   283
1070
     0
1070
   340
1005
144
1070
   140
1040
4.5
1070
   284
1070
     8
1070
   288
1070
     1
1070
    78
1070
     8
1070
    90
1070
     1
1002
}
  0
DIMENSION
  5
34E
330
1F
100
AcDbEntity
  8
0
  6
Continuous
370
    13
100
AcDbDimension
280
     0
  2
*D31
 10
159.6134663341646
 20
21.98790523690769
 30
0.0
 11
159.6134663341646
 21
-17.38709476309231
 31
0.0
 70
   160
 71
     8
 42
-1.0
 73
     0
 74
     0
 75
     0
  3
dc_Rotated
100
AcDbAlignedDimension
 13
133.2378252482002
 23
-56.7620947630923
 33
0.0
 14
104.4878252482002
 24
21.98790523690769
 34
0.0
 50
90.0
100
AcDbRotatedDimension
1001
ACAD
1000
DSTYLE
1002
{
1070
   144
1040
1.0
1070
   274
1070
     4
1070
    41
1040
3.000001907348633
1070
    79
1070
     2
1070
   343
1005
168
1070
   344
1005
168
1070
   176
1070
     2
1070
   177
1070
     2
1070
   178
1070
     4
1070
   271
1070
     2
1070
    44
1040
1.0
1070
    42
1040
1.0
1070
   147
1040
1.0
1070
   173
1070
     1
1070
    77
1070
     3
1070
    73
1070
     0
1070
   172
1070
     1
1070
    74
1070
     0
1070
   283
1070
     0
1070
   340
1005
144
1070
   140
1040
4.5
1070
   284
1070
     8
1070
   288
1070
     1
1070
    78
1070
     8
1070
    90
1070
     1
1002
}
  0
INSERT
  5
34F
330
1F
100
AcDbEntity
  8
0
  6
Continuous
100
AcDbBlockReference
  2
DC_GROUP_COM-1195THJ1-00S304A_20
 10
0.0
 20
0.0
 30
0.0
  0
INSERT
  5
350
330
1F
100
AcDbEntity
  8
0
  6
Continuous
100
AcDbBlockReference
  2
DC_GROUP_COM-1195THJ1-00S304A_21
 10
0.0
 20
0.0
 30
0.0
  0
INSERT
  5
351
330
1F
100
AcDbEntity
  8
0
  6
Continuous
100
AcDbBlockReference
  2
DC_GROUP_COM-1195THJ1-00S304A_22
 10
0.0
 20
0.0
 30
0.0
  0
INSERT
  5
352
330
1F
100
AcDbEntity
  8
0
  6
Continuous
100
AcDbBlockReference
  2
DC_GROUP_COM-1195THJ1-00S304A_23
 10
0.0
 20
0.0
 30
0.0
  0
INSERT
  5
353
330
1F
100
AcDbEntity
  8
0
  6
Continuous
100
AcDbBlockReference
  2
DC_GROUP_COM-1195THJ1-00S304A_24
 10
0.0
 20
0.0
 30
0.0
  0
INSERT
  5
354
330
1F
100
AcDbEntity
  8
0
  6
Continuous
100
AcDbBlockReference
  2
DC_GROUP_COM-1195THJ1-00S304A_25
 10
0.0
 20
0.0
 30
0.0
  0
DIMENSION
  5
355
330
1F
100
AcDbEntity
  8
0
  6
Continuous
370
    13
100
AcDbDimension
280
     0
  2
*D38
 10
-156.7147932056651
 20
-61.37129315759012
 30
0.0
 11
-149.4420132056651
 21
-61.37129315759012
 31
0.0
 70
   160
 71
     8
 42
-1.0
 73
     0
 74
     0
 75
     0
  3
dc_Rotated
100
AcDbAlignedDimension
 13
-158.2147932056651
 23
-56.26209476309231
 33
0.0
 14
-156.7147932056651
 24
-53.01209476309232
 34
0.0
100
AcDbRotatedDimension
1001
ACAD
1000
DSTYLE
1002
{
1070
   144
1040
1.0
1070
   274
1070
     4
1070
    41
1040
3.000001907348633
1070
    79
1070
     2
1070
   343
1005
168
1070
   344
1005
168
1070
   176
1070
     2
1070
   177
1070
     2
1070
   178
1070
     4
1070
   271
1070
     1
1070
    44
1040
1.0
1070
    42
1040
1.0
1070
   147
1040
1.0
1070
   173
1070
     1
1070
    77
1070
     3
1070
    73
1070
     0
1070
   172
1070
     1
1070
    74
1070
     0
1070
   283
1070
     0
1070
   340
1005
144
1070
   140
1040
4.5
1070
   284
1070
     8
1070
   288
1070
     1
1070
    78
1070
     8
1070
    90
1070
     1
1002
}
  0
DIMENSION
  5
356
330
1F
100
AcDbEntity
  8
0
  6
Continuous
370
    13
100
AcDbDimension
280
     0
  2
*D39
 10
-157.1701087163906
 20
-51.93569599039273
 30
0.0
 11
-168.8703489942085
 21
-59.48331417150322
 31
0.0
 70
   163
  1
\W0.6818;φ3
 71
     8
 42
-1.0
 73
     0
 74
     0
 75
     0
  3
dc_Diam07
100
AcDbDiametricDimension
 15
-159.2594776949396
 25
-54.08849353579188
 35
0.0
 40
0.0
1001
ACAD
1000
DSTYLE
1002
{
1070
   144
1040
1.0
1070
   274
1070
     4
1070
    41
1040
3.000001907348633
1070
    79
1070
     2
1070
   343
1005
168
1070
   344
1005
168
1070
   176
1070
     2
1070
   177
1070
     2
1070
   178
1070
     4
1070
   271
1070
     2
1070
    44
1040
1.0
1070
    42
1040
1.0
1070
   147
1040
1.0
1070
   173
1070
     1
1070
    77
1070
     2
1070
   172
1070
     1
1070
   283
1070
     0
1070
   340
1005
144
1070
   140
1040
4.5
1070
   284
1070
     8
1070
   288
1070
     1
1070
    78
1070
     8
1070
    90
1070
     1
1002
}
  0
DIMENSION
  5
358
330
1F
100
AcDbEntity
  8
0
  6
Continuous
370
    13
100
AcDbDimension
280
     0
  2
*D40
 10
-172.5869943680586
 20
-20.41209476309232
 30
0.0
 11
-172.5869943680586
 21
-31.51209476309231
 31
0.0
 70
   160
  1
\W0.5769;φ<>
 71
     8
 42
-1.0
 73
     0
 74
     0
 75
     0
  3
dc_Rotated
100
AcDbAlignedDimension
 13
-158.2147932056651
 23
-42.6120947630923
 33
0.0
 14
-158.2147932056651
 24
-20.41209476309232
 34
0.0
 50
90.0
100
AcDbRotatedDimension
1001
ACAD
1000
DSTYLE
1002
{
1070
   144
1040
1.0
1070
   274
1070
     4
1070
    41
1040
3.000001907348633
1070
    79
1070
     2
1070
   343
1005
168
1070
   344
1005
168
1070
   176
1070
     2
1070
   177
1070
     2
1070
   178
1070
     4
1070
   271
1070
     2
1070
    44
1040
1.0
1070
    42
1040
1.0
1070
   147
1040
1.0
1070
   173
1070
     1
1070
    77
1070
     3
1070
    73
1070
     0
1070
   172
1070
     1
1070
    74
1070
     0
1070
   283
1070
     0
1070
   340
1005
144
1070
   140
1040
4.5
1070
   284
1070
     8
1070
   288
1070
     1
1070
    78
1070
     8
1070
    90
1070
     1
1002
}
  0
DIMENSION
  5
359
330
1F
100
AcDbEntity
  8
0
  6
Continuous
370
    13
100
AcDbDimension
280
     0
  2
*D41
 10
-180.8719094011445
 20
-10.01209476309234
 30
0.0
 11
-180.8719094011445
 21
-31.51209476309233
 31
0.0
 70
   160
 71
     8
 42
-1.0
 73
     0
 74
     0
 75
     0
  3
dc_Rotated
100
AcDbAlignedDimension
 13
-160.3147932056651
 23
-53.01209476309232
 33
0.0
 14
-160.3147932056651
 24
-10.01209476309234
 34
0.0
 50
90.0
100
AcDbRotatedDimension
1001
ACAD
1000
DSTYLE
1002
{
1070
   144
1040
1.0
1070
   274
1070
     4
1070
    41
1040
3.000001907348633
1070
    79
1070
     2
1070
   343
1005
168
1070
   344
1005
168
1070
   176
1070
     2
1070
   177
1070
     2
1070
   178
1070
     4
1070
   271
1070
     1
1070
    44
1040
1.0
1070
    42
1040
1.0
1070
   147
1040
1.0
1070
   173
1070
     1
1070
    77
1070
     3
1070
    73
1070
     0
1070
   172
1070
     1
1070
    74
1070
     0
1070
   283
1070
     0
1070
   340
1005
144
1070
   140
1040
4.5
1070
   284
1070
     8
1070
   288
1070
     1
1070
    78
1070
     8
1070
    90
1070
     1
1002
}
  0
DIMENSION
  5
35A
330
1F
100
AcDbEntity
  8
0
  6
Continuous
370
    13
100
AcDbDimension
280
     0
  2
*D42
 10
-123.4658660816363
 20
21.15713388517169
 30
0.0
 11
-137.9180333108983
 21
27.86034472882595
 31
0.0
 70
   163
  1
\W0.6818;φ3
 71
     8
 42
-1.0
 73
     0
 74
     0
 75
     0
  3
dc_Diam07
100
AcDbDiametricDimension
 15
-125.9637203296939
 25
22.81867658864365
 35
0.0
 40
0.0
1001
ACAD
1000
DSTYLE
1002
{
1070
   144
1040
1.0
1070
   274
1070
     4
1070
    41
1040
3.000001907348633
1070
    79
1070
     2
1070
   343
1005
168
1070
   344
1005
168
1070
   176
1070
     2
1070
   177
1070
     2
1070
   178
1070
     4
1070
   271
1070
     2
1070
    44
1040
1.0
1070
    42
1040
1.0
1070
   147
1040
1.0
1070
   173
1070
     1
1070
    77
1070
     2
1070
   172
1070
     1
1070
   283
1070
     0
1070
   340
1005
144
1070
   140
1040
4.5
1070
   284
1070
     8
1070
   288
1070
     1
1070
    78
1070
     8
1070
    90
1070
     1
1002
}
  0
DIMENSION
  5
35B
330
1F
100
AcDbEntity
  8
0
  6
Continuous
370
    13
100
AcDbDimension
280
     0
  2
*D43
 10
-92.1147932056651
 20
32.47119915551558
 30
0.0
 11
-103.2147932056651
 21
32.47119915551558
 31
0.0
 70
   160
  1
\W0.5769;φ<>
 71
     8
 42
-1.0
 73
     0
 74
     0
 75
     0
  3
dc_Rotated
100
AcDbAlignedDimension
 13
-114.3147932056651
 23
21.98790523690768
 33
0.0
 14
-92.1147932056651
 24
21.98790523690768
 34
0.0
100
AcDbRotatedDimension
1001
ACAD
1000
DSTYLE
1002
{
1070
   144
1040
1.0
1070
   274
1070
     4
1070
    41
1040
3.000001907348633
1070
    79
1070
     2
1070
   343
1005
168
1070
   344
1005
168
1070
   176
1070
     2
1070
   177
1070
     2
1070
   178
1070
     4
1070
   271
1070
     2
1070
    44
1040
1.0
1070
    42
1040
1.0
1070
   147
1040
1.0
1070
   173
1070
     1
1070
    77
1070
     3
1070
    73
1070
     0
1070
   172
1070
     1
1070
    74
1070
     0
1070
   283
1070
     0
1070
   340
1005
144
1070
   140
1040
4.5
1070
   284
1070
     8
1070
   288
1070
     1
1070
    78
1070
     8
1070
    90
1070
     1
1002
}
  0
DIMENSION
  5
35C
330
1F
100
AcDbEntity
  8
0
  6
Continuous
370
    13
100
AcDbDimension
280
     0
  2
*D44
 10
-81.7147932056651
 20
39.34949152958451
 30
0.0
 11
-103.2147932056651
 21
39.34949152958451
 31
0.0
 70
   160
 71
     8
 42
-1.0
 73
     0
 74
     0
 75
     0
  3
dc_Rotated
100
AcDbAlignedDimension
 13
-124.7147932056651
 23
24.08790523690764
 33
0.0
 14
-81.7147932056651
 24
24.08790523690764
 34
0.0
100
AcDbRotatedDimension
1001
ACAD
1000
DSTYLE
1002
{
1070
   144
1040
1.0
1070
   274
1070
     4
1070
    41
1040
3.000001907348633
1070
    79
1070
     2
1070
   343
1005
168
1070
   344
1005
168
1070
   176
1070
     2
1070
   177
1070
     2
1070
   178
1070
     4
1070
   271
1070
     2
1070
    44
1040
1.0
1070
    42
1040
1.0
1070
   147
1040
1.0
1070
   173
1070
     1
1070
    77
1070
     3
1070
    73
1070
     0
1070
   172
1070
     1
1070
    74
1070
     0
1070
   283
1070
     0
1070
   340
1005
144
1070
   140
1040
4.5
1070
   284
1070
     8
1070
   288
1070
     1
1070
    78
1070
     8
1070
    90
1070
     1
1002
}
  0
CIRCLE
  5
35D
330
1F
100
AcDbEntity
  8
0
  6
CENTER
 62
     2
370
    13
100
AcDbCircle
 10
78.73782524820024
 20
82.08289059958796
 30
0.0
 40
21.5
  0
LINE
  5
35E
330
1F
100
AcDbEntity
  8
0
  6
CENTER
 62
     2
370
    13
100
AcDbLine
 10
18.95287417223958
 20
-31.51209476309231
 30
0.0
 11
135.9984063630914
 21
-31.51209476309231
 31
0.0
  0
LINE
  5
35F
330
1F
100
AcDbEntity
  8
0
  6
CENTER
 62
     2
370
    13
100
AcDbLine
 10
78.73782524820024
 20
26.0
 30
0.0
 11
78.73782524820024
 21
-56.39401496259353
 31
0.0
  0
CIRCLE
  5
360
330
1F
100
AcDbEntity
  8
0
  6
CENTER
 62
     2
370
    13
100
AcDbCircle
 10
-87.93395328470172
 20
82.08289059958796
 30
0.0
 40
21.5
  0
LINE
  5
361
330
1F
100
AcDbEntity
  8
0
  6
CENTER
 62
     2
370
    13
100
AcDbLine
 10
-162.9997442816257
 20
-31.51209476309231
 30
0.0
 11
-45.95421209077392
 21
-31.51209476309231
 31
0.0
  0
LINE
  5
362
330
1F
100
AcDbEntity
  8
0
  6
CENTER
 62
     2
370
    13
100
AcDbLine
 10
-103.2147932056651
 20
26.2456359102244
 30
0.0
 11
-103.2147932056651
 21
-56.76209476309231
 31
0.0
  0
LINE
  5
363
330
1F
100
AcDbEntity
  8
0
  6
DASHED2
 62
     4
370
    18
100
AcDbLine
 10
56.94333053049687
 20
94.83289059958796
 30
0.0
 11
78.73782524820024
 21
94.83289059958796
 31
0.0
  0
LINE
  5
364
330
1F
100
AcDbEntity
  8
0
  6
DASHED2
 62
     4
370
    18
100
AcDbLine
 10
78.73782524820024
 20
69.33289059958796
 30
0.0
 11
56.94333053049687
 21
69.33289059958796
 31
0.0
  0
LINE
  5
365
330
1F
100
AcDbEntity
  8
0
  6
DASHED2
 62
     4
370
    18
100
AcDbLine
 10
100.5323199659036
 20
94.83289059958796
 30
0.0
 11
78.73782524820024
 21
94.83289059958796
 31
0.0
  0
LINE
  5
366
330
1F
100
AcDbEntity
  8
0
  6
DASHED2
 62
     4
370
    18
100
AcDbLine
 10
78.73782524820024
 20
69.33289059958796
 30
0.0
 11
100.5323199659036
 21
69.33289059958796
 31
0.0
  0
LINE
  5
367
330
1F
100
AcDbEntity
  8
0
  6
DASHED2
 62
     4
370
    18
100
AcDbLine
 10
-66.13945856699834
 20
94.83289059958796
 30
0.0
 11
-87.93395328470172
 21
94.83289059958796
 31
0.0
  0
LINE
  5
368
330
1F
100
AcDbEntity
  8
0
  6
DASHED2
 62
     4
370
    18
100
AcDbLine
 10
-87.93395328470172
 20
69.33289059958796
 30
0.0
 11
-66.13945856699834
 21
69.33289059958796
 31
0.0
  0
LINE
  5
369
330
1F
100
AcDbEntity
  8
0
  6
Continuous
 62
     3
370
    25
100
AcDbLine
 10
137.0294276596184
 20
82.08289059958793
 30
0.0
 11
145.4225526958502
 21
82.08289059958793
 31
0.0
  0
LINE
  5
36A
330
1F
100
AcDbEntity
  8
0
  6
Continuous
 62
     3
370
    25
100
AcDbLine
 10
141.8432812413519
 20
82.08289059958793
 30
0.0
 11
141.8432812413519
 21
69.41929194778595
 31
0.0
  0
LINE
  5
36B
330
1F
100
AcDbEntity
  8
0
  6
Continuous
 62
     3
370
    25
100
AcDbLine
 10
141.8432812413519
 20
82.08289059958793
 30
0.0
 11
143.0743114029628
 21
77.24696457763645
 31
0.0
  0
LINE
  5
36C
330
1F
100
AcDbEntity
  8
0
  6
Continuous
 62
     3
370
    25
100
AcDbLine
 10
143.0743114029628
 20
77.24696457763645
 30
0.0
 11
141.3251108152868
 21
76.02252416626317
 31
0.0
  0
LINE
  5
36D
330
1F
100
AcDbEntity
  8
0
  6
Continuous
 62
     3
370
    25
100
AcDbLine
 10
138.2640097868536
 20
82.18289059958789
 30
0.0
 11
145.4225526958502
 21
82.18289059958789
 31
0.0
  0
LINE
  5
36E
330
1F
100
AcDbEntity
  8
0
  6
Continuous
 62
     3
370
    25
100
AcDbLine
 10
138.2640097868536
 20
82.28289059958792
 30
0.0
 11
145.4225526958502
 21
82.28289059958792
 31
0.0
  0
LINE
  5
36F
330
1F
100
AcDbEntity
  8
0
  6
Continuous
 62
     3
370
    25
100
AcDbLine
 10
138.2640097868536
 20
82.38289059958788
 30
0.0
 11
145.4225526958502
 21
82.38289059958788
 31
0.0
  0
LINE
  5
370
330
1F
100
AcDbEntity
  8
0
  6
Continuous
 62
     3
370
    25
100
AcDbLine
 10
138.2640097868536
 20
82.4828905995879
 30
0.0
 11
145.4225526958502
 21
82.4828905995879
 31
0.0
  0
LINE
  5
371
330
1F
100
AcDbEntity
  8
0
  6
Continuous
 62
     3
370
    25
100
AcDbLine
 10
138.2640097868536
 20
81.9828905995879
 30
0.0
 11
145.4225526958502
 21
81.9828905995879
 31
0.0
  0
LINE
  5
372
330
1F
100
AcDbEntity
  8
0
  6
Continuous
 62
     3
370
    25
100
AcDbLine
 10
138.2640097868536
 20
81.88289059958794
 30
0.0
 11
145.4225526958502
 21
81.88289059958794
 31
0.0
  0
LINE
  5
373
330
1F
100
AcDbEntity
  8
0
  6
Continuous
 62
     3
370
    25
100
AcDbLine
 10
138.2640097868536
 20
81.78289059958792
 30
0.0
 11
145.4225526958502
 21
81.78289059958792
 31
0.0
  0
LINE
  5
374
330
1F
100
AcDbEntity
  8
0
  6
Continuous
 62
     3
370
    25
100
AcDbLine
 10
138.2640097868536
 20
81.68289059958795
 30
0.0
 11
145.4225526958502
 21
81.68289059958795
 31
0.0
  0
LINE
  5
375
330
1F
100
AcDbEntity
  8
0
  6
Continuous
 62
     3
370
    25
100
AcDbLine
 10
137.0294276596184
 20
82.08289059958793
 30
0.0
 11
145.4225526958502
 21
82.08289059958793
 31
0.0
  0
LINE
  5
376
330
1F
100
AcDbEntity
  8
0
  6
Continuous
 62
     3
370
    25
100
AcDbLine
 10
141.8432812413519
 20
82.08289059958793
 30
0.0
 11
141.8432812413519
 21
69.41929194778595
 31
0.0
  0
LINE
  5
377
330
1F
100
AcDbEntity
  8
0
  6
Continuous
 62
     3
370
    25
100
AcDbLine
 10
141.8432812413519
 20
82.08289059958793
 30
0.0
 11
143.0743114029628
 21
77.24696457763645
 31
0.0
  0
LINE
  5
378
330
1F
100
AcDbEntity
  8
0
  6
Continuous
 62
     3
370
    25
100
AcDbLine
 10
143.0743114029628
 20
77.24696457763645
 30
0.0
 11
141.3251108152868
 21
76.02252416626317
 31
0.0
  0
LINE
  5
379
330
1F
100
AcDbEntity
  8
0
  6
Continuous
 62
     3
370
    25
100
AcDbLine
 10
138.2640097868536
 20
82.18289059958789
 30
0.0
 11
145.4225526958502
 21
82.18289059958789
 31
0.0
  0
LINE
  5
37A
330
1F
100
AcDbEntity
  8
0
  6
Continuous
 62
     3
370
    25
100
AcDbLine
 10
138.2640097868536
 20
82.28289059958792
 30
0.0
 11
145.4225526958502
 21
82.28289059958792
 31
0.0
  0
LINE
  5
37B
330
1F
100
AcDbEntity
  8
0
  6
Continuous
 62
     3
370
    25
100
AcDbLine
 10
138.2640097868536
 20
82.38289059958788
 30
0.0
 11
145.4225526958502
 21
82.38289059958788
 31
0.0
  0
LINE
  5
37C
330
1F
100
AcDbEntity
  8
0
  6
Continuous
 62
     3
370
    25
100
AcDbLine
 10
138.2640097868536
 20
82.4828905995879
 30
0.0
 11
145.4225526958502
 21
82.4828905995879
 31
0.0
  0
LINE
  5
37D
330
1F
100
AcDbEntity
  8
0
  6
Continuous
 62
     3
370
    25
100
AcDbLine
 10
138.2640097868536
 20
81.9828905995879
 30
0.0
 11
145.4225526958502
 21
81.9828905995879
 31
0.0
  0
LINE
  5
37E
330
1F
100
AcDbEntity
  8
0
  6
Continuous
 62
     3
370
    25
100
AcDbLine
 10
138.2640097868536
 20
81.88289059958794
 30
0.0
 11
145.4225526958502
 21
81.88289059958794
 31
0.0
  0
LINE
  5
37F
330
1F
100
AcDbEntity
  8
0
  6
Continuous
 62
     3
370
    25
100
AcDbLine
 10
138.2640097868536
 20
81.78289059958792
 30
0.0
 11
145.4225526958502
 21
81.78289059958792
 31
0.0
  0
LINE
  5
380
330
1F
100
AcDbEntity
  8
0
  6
Continuous
 62
     3
370
    25
100
AcDbLine
 10
138.2640097868536
 20
81.68289059958795
 30
0.0
 11
145.4225526958502
 21
81.68289059958795
 31
0.0
  0
LINE
  5
381
330
1F
100
AcDbEntity
  8
0
  6
Continuous
 62
     3
370
    25
100
AcDbLine
 10
12.9114573330055
 20
82.08289059958793
 30
0.0
 11
20.51091508308798
 21
82.08289059958793
 31
0.0
  0
LINE
  5
382
330
1F
100
AcDbEntity
  8
0
  6
Continuous
 62
     3
370
    25
100
AcDbLine
 10
16.49072878750383
 20
82.08289059958793
 30
0.0
 11
16.49072878750383
 21
69.41929194778595
 31
0.0
  0
LINE
  5
383
330
1F
100
AcDbEntity
  8
0
  6
Continuous
 62
     3
370
    25
100
AcDbLine
 10
16.49072878750383
 20
82.08289059958793
 30
0.0
 11
17.72175894911476
 21
77.24696457763645
 31
0.0
  0
LINE
  5
384
330
1F
100
AcDbEntity
  8
0
  6
Continuous
 62
     3
370
    25
100
AcDbLine
 10
17.72175894911476
 20
77.24696457763645
 30
0.0
 11
15.97255836143864
 21
76.02252416626317
 31
0.0
  0
LINE
  5
385
330
1F
100
AcDbEntity
  8
0
  6
Continuous
 62
     3
370
    25
100
AcDbLine
 10
12.9114573330055
 20
82.18289059958789
 30
0.0
 11
20.07000024200215
 21
82.18289059958789
 31
0.0
  0
LINE
  5
386
330
1F
100
AcDbEntity
  8
0
  6
Continuous
 62
     3
370
    25
100
AcDbLine
 10
12.9114573330055
 20
82.28289059958792
 30
0.0
 11
20.07000024200215
 21
82.28289059958792
 31
0.0
  0
LINE
  5
387
330
1F
100
AcDbEntity
  8
0
  6
Continuous
 62
     3
370
    25
100
AcDbLine
 10
12.9114573330055
 20
82.38289059958788
 30
0.0
 11
20.07000024200215
 21
82.38289059958788
 31
0.0
  0
LINE
  5
388
330
1F
100
AcDbEntity
  8
0
  6
Continuous
 62
     3
370
    25
100
AcDbLine
 10
12.9114573330055
 20
82.4828905995879
 30
0.0
 11
20.07000024200215
 21
82.4828905995879
 31
0.0
  0
LINE
  5
389
330
1F
100
AcDbEntity
  8
0
  6
Continuous
 62
     3
370
    25
100
AcDbLine
 10
12.9114573330055
 20
81.9828905995879
 30
0.0
 11
20.07000024200215
 21
81.9828905995879
 31
0.0
  0
LINE
  5
38A
330
1F
100
AcDbEntity
  8
0
  6
Continuous
 62
     3
370
    25
100
AcDbLine
 10
12.9114573330055
 20
81.88289059958794
 30
0.0
 11
20.07000024200215
 21
81.88289059958794
 31
0.0
  0
LINE
  5
38B
330
1F
100
AcDbEntity
  8
0
  6
Continuous
 62
     3
370
    25
100
AcDbLine
 10
12.9114573330055
 20
81.78289059958792
 30
0.0
 11
20.07000024200215
 21
81.78289059958792
 31
0.0
  0
LINE
  5
38C
330
1F
100
AcDbEntity
  8
0
  6
Continuous
 62
     3
370
    25
100
AcDbLine
 10
12.9114573330055
 20
82.08289059958793
 30
0.0
 11
20.51091508308798
 21
82.08289059958793
 31
0.0
  0
LINE
  5
38D
330
1F
100
AcDbEntity
  8
0
  6
Continuous
 62
     3
370
    25
100
AcDbLine
 10
16.49072878750383
 20
82.08289059958793
 30
0.0
 11
16.49072878750383
 21
69.41929194778595
 31
0.0
  0
LINE
  5
38E
330
1F
100
AcDbEntity
  8
0
  6
Continuous
 62
     3
370
    25
100
AcDbLine
 10
16.49072878750383
 20
82.08289059958793
 30
0.0
 11
17.72175894911476
 21
77.24696457763645
 31
0.0
  0
LINE
  5
38F
330
1F
100
AcDbEntity
  8
0
  6
Continuous
 62
     3
370
    25
100
AcDbLine
 10
17.72175894911476
 20
77.24696457763645
 30
0.0
 11
15.97255836143864
 21
76.02252416626317
 31
0.0
  0
LINE
  5
390
330
1F
100
AcDbEntity
  8
0
  6
Continuous
 62
     3
370
    25
100
AcDbLine
 10
12.9114573330055
 20
82.18289059958789
 30
0.0
 11
20.07000024200215
 21
82.18289059958789
 31
0.0
  0
LINE
  5
391
330
1F
100
AcDbEntity
  8
0
  6
Continuous
 62
     3
370
    25
100
AcDbLine
 10
12.9114573330055
 20
82.28289059958792
 30
0.0
 11
20.07000024200215
 21
82.28289059958792
 31
0.0
  0
LINE
  5
392
330
1F
100
AcDbEntity
  8
0
  6
Continuous
 62
     3
370
    25
100
AcDbLine
 10
12.9114573330055
 20
82.38289059958788
 30
0.0
 11
20.07000024200215
 21
82.38289059958788
 31
0.0
  0
LINE
  5
393
330
1F
100
AcDbEntity
  8
0
  6
Continuous
 62
     3
370
    25
100
AcDbLine
 10
12.9114573330055
 20
82.4828905995879
 30
0.0
 11
20.07000024200215
 21
82.4828905995879
 31
0.0
  0
LINE
  5
394
330
1F
100
AcDbEntity
  8
0
  6
Continuous
 62
     3
370
    25
100
AcDbLine
 10
12.9114573330055
 20
81.9828905995879
 30
0.0
 11
20.07000024200215
 21
81.9828905995879
 31
0.0
  0
LINE
  5
395
330
1F
100
AcDbEntity
  8
0
  6
Continuous
 62
     3
370
    25
100
AcDbLine
 10
12.9114573330055
 20
81.88289059958794
 30
0.0
 11
20.07000024200215
 21
81.88289059958794
 31
0.0
  0
LINE
  5
396
330
1F
100
AcDbEntity
  8
0
  6
Continuous
 62
     3
370
    25
100
AcDbLine
 10
12.9114573330055
 20
81.78289059958792
 30
0.0
 11
20.07000024200215
 21
81.78289059958792
 31
0.0
  0
LINE
  5
397
330
1F
100
AcDbEntity
  8
0
  6
Continuous
 62
     3
370
    25
100
AcDbLine
 10
12.9114573330055
 20
81.68289059958795
 30
0.0
 11
20.07000024200215
 21
81.68289059958795
 31
0.0
  0
TEXT
  5
398
330
1F
100
AcDbEntity
  8
0
 62
     4
100
AcDbText
 10
141.0255904626811
 20
70.49277306437051
 30
0.0
 40
4.5
  1
Ａ
 50
90.0
 41
1.4
  7
dcStyle0
 72
     5
 11
141.0255904626811
 21
74.99277306437051
 31
0.0
100
AcDbText
  0
TEXT
  5
399
330
1F
100
AcDbEntity
  8
0
 62
     4
100
AcDbText
 10
15.67303800883303
 20
70.49277306437051
 30
0.0
 40
4.5
  1
Ａ
 50
90.0
 41
1.4
  7
dcStyle0
 72
     5
 11
15.67303800883303
 21
74.99277306437051
 31
0.0
100
AcDbText
  0
TEXT
  5
39A
330
1F
100
AcDbEntity
  8
0
 62
     4
100
AcDbText
 10
-117.9282791790008
 20
-62.20184495692678
 30
0.0
 40
4.5
  1
SEC　Ａ－Ａ
 41
1.112403100775194
  7
dcStyle0
 72
     5
 11
-87.17827917900081
 21
-62.20184495692678
 31
0.0
100
AcDbText
  0
ARC
  5
39B
330
1F
100
AcDbEntity
  8
0
  6
DIVIDE
 62
     7
370
    13
100
AcDbCircle
 10
-158.2147932056651
 20
-53.01209476309231
 30
0.0
 40
1.5
100
AcDbArc
 50
90.0
 51
270.0
  0
ARC
  5
39C
330
1F
100
AcDbEntity
  8
0
  6
DIVIDE
 62
     7
370
    13
100
AcDbCircle
 10
-124.7147932056651
 20
21.98790523690767
 30
0.0
 40
1.5
100
AcDbArc
 50
0.0000000000000035
 51
180.0
  0
VIEWPORT
  5
B3
330
1B
100
AcDbEntity
 67
     1
  8
0
100
AcDbViewport
 10
0.0
 20
0.0
 30
0.0
 40
1260.0
 41
891.0
 68
     1
 69
     1
 12
0.0
 22
0.0
 13
0.0
 23
0.0
 14
0.5
 24
0.5
 15
0.0
 25
0.0
 16
0.0
 26
0.0
 36
1.0
 17
0.0
 27
0.0
 37
0.0
 42
50.0
 43
0.0
 44
0.0
 45
891.0
 50
0.0
 51
0.0
 72
   100
 90
   557152
  1

281
     0
 71
     1
 74
     0
110
0.0
120
0.0
130
0.0
111
1.0
121
0.0
131
0.0
112
0.0
122
1.0
132
0.0
 79
     0
146
0.0
170
     0
 61
     5
348
2F
292
     1
282
     1
141
0.0
142
0.0
 63
   256
  0
ENDSEC
  0
SECTION
  2
OBJECTS
  0
DICTIONARY
  5
C
330
0
100
AcDbDictionary
281
     1
  3
ACAD_DETAILVIEWSTYLE
350
3D4
  3
ACAD_GROUP
350
D
  3
ACAD_LAYOUT
350
1A
  3
ACAD_MATERIAL
350
43
  3
ACAD_MLEADERSTYLE
350
6B
  3
ACAD_MLINESTYLE
350
17
  3
ACAD_PLOTSETTINGS
350
19
  3
ACAD_PLOTSTYLENAME
350
E
  3
ACAD_SCALELIST
350
47
  3
ACAD_SECTIONVIEWSTYLE
350
3D5
  3
ACAD_TABLESTYLE
350
69
  3
ACAD_VISUALSTYLE
350
2A
  3
ACDB_RECOMPOSE_DATA
350
3D1
  3
AcDbVariableDictionary
350
39D
  0
SUN
  5
6D
330
29
100
AcDbSun
 90
        1
290
     0
 63
     7
421
 16777215
 40
1.0
291
     1
 91
  2455826
 92
 54000000
292
     0
 70
     2
 71
   256
280
     1
  0
DICTIONARY
  5
3D4
102
{ACAD_REACTORS
330
C
102
}
330
C
100
AcDbDictionary
281
     1
  0
DICTIONARY
  5
D
102
{ACAD_REACTORS
330
C
102
}
330
C
100
AcDbDictionary
281
     1
  0
DICTIONARY
  5
1A
102
{ACAD_REACTORS
330
C
102
}
330
C
100
AcDbDictionary
281
     1
  3
Layout1
350
1E
  3
Layout2
350
26
  3
Model
350
22
  0
DICTIONARY
  5
43
102
{ACAD_REACTORS
330
C
102
}
330
C
100
AcDbDictionary
281
     1
  3
ByBlock
350
45
  3
ByLayer
350
44
  3
Global
350
46
  0
DICTIONARY
  5
6B
102
{ACAD_REACTORS
330
C
102
}
330
C
100
AcDbDictionary
281
     1
  3
Standard
350
6C
  0
DICTIONARY
  5
17
102
{ACAD_REACTORS
330
C
102
}
330
C
100
AcDbDictionary
281
     1
  3
Standard
350
18
  0
DICTIONARY
  5
19
102
{ACAD_REACTORS
330
C
102
}
330
C
100
AcDbDictionary
281
     1
  0
ACDBDICTIONARYWDFLT
  5
E
102
{ACAD_REACTORS
330
C
102
}
330
C
100
AcDbDictionary
281
     1
  3
Normal
350
F
100
AcDbDictionaryWithDefault
340
F
  0
DICTIONARY
  5
47
102
{ACAD_REACTORS
330
C
102
}
330
C
100
AcDbDictionary
281
     1
  3
A0
350
48
  3
A1
350
49
  3
A2
350
4A
  3
A3
350
4B
  3
A4
350
4C
  3
A5
350
4D
  3
A6
350
4E
  3
A7
350
4F
  3
A8
350
50
  3
A9
350
51
  3
B0
350
52
  3
B1
350
53
  3
B2
350
54
  3
B3
350
55
  3
B4
350
56
  3
B5
350
57
  3
B6
350
58
  3
B7
350
59
  3
B8
350
5A
  3
B9
350
5B
  3
C0
350
5C
  3
C1
350
5D
  3
C2
350
5E
  3
C3
350
5F
  3
C4
350
60
  3
C5
350
61
  3
C6
350
62
  3
C7
350
63
  3
C8
350
64
  3
C9
350
65
  3
D0
350
66
  3
D1
350
67
  3
D2
350
68
  0
DICTIONARY
  5
3D5
102
{ACAD_REACTORS
330
C
102
}
330
C
100
AcDbDictionary
281
     1
  0
DICTIONARY
  5
69
102
{ACAD_REACTORS
330
C
102
}
330
C
100
AcDbDictionary
281
     1
  3
Standard
350
6A
  0
DICTIONARY
  5
2A
102
{ACAD_REACTORS
330
C
102
}
330
C
100
AcDbDictionary
281
     1
  3
2dWireframe
350
2F
  3
Basic
350
32
  3
Brighten
350
36
  3
ColorChange
350
3A
  3
Conceptual
350
34
  3
Dim
350
35
  3
EdgeColorOff
350
3D
  3
Facepattern
350
39
  3
Flat
350
2B
  3
FlatWithEdges
350
2C
  3
Gouraud
350
2D
  3
GouraudWithEdges
350
2E
  3
Hidden
350
31
  3
JitterOff
350
3B
  3
Linepattern
350
38
  3
OverhangOff
350
3C
  3
Realistic
350
33
  3
Shaded
350
42
  3
Shaded with edges
350
41
  3
Shades of Gray
350
3E
  3
Sketchy
350
3F
  3
Thicken
350
37
  3
Wireframe
350
30
  3
X-Ray
350
40
  0
XRECORD
  5
3D1
102
{ACAD_REACTORS
330
C
102
}
330
C
100
AcDbXrecord
280
     1
 90
        1
330
6A
  0
DICTIONARY
  5
39D
102
{ACAD_REACTORS
330
C
102
}
330
C
100
AcDbDictionary
281
     1
  3
CANNOSCALE
350
39E
  3
CMLEADERSTYLE
350
3D3
  3
CTABLESTYLE
350
3D2
  0
LAYOUT
  5
1E
102
{ACAD_REACTORS
330
1A
102
}
330
1A
100
AcDbPlotSettings
  1

  2
none_device
  4

  6

 40
0.0
 41
0.0
 42
0.0
 43
0.0
 44
0.0
 45
0.0
 46
0.0
 47
0.0
 48
0.0
 49
0.0
140
0.0
141
0.0
142
1.0
143
1.0
 70
   688
 72
     0
 73
     0
 74
     5
  7

 75
    16
 76
     0
 77
     2
 78
   300
147
1.0
148
0.0
149
0.0
100
AcDbLayout
  1
Layout1
 70
     0
 71
     1
 10
0.0
 20
0.0
 11
12.0
 21
9.0
 12
0.0
 22
0.0
 32
0.0
 14
1.000000000000000E+20
 24
1.000000000000000E+20
 34
1.000000000000000E+20
 15
-1.000000000000000E+20
 25
-1.000000000000000E+20
 35
-1.000000000000000E+20
146
0.0
 13
0.0
 23
0.0
 33
0.0
 16
1.0
 26
0.0
 36
0.0
 17
0.0
 27
1.0
 37
0.0
 76
     0
330
1B
331
B3
  0
LAYOUT
  5
26
102
{ACAD_REACTORS
330
1A
102
}
330
1A
100
AcDbPlotSettings
  1

  2
none_device
  4

  6

 40
0.0
 41
0.0
 42
0.0
 43
0.0
 44
0.0
 45
0.0
 46
0.0
 47
0.0
 48
0.0
 49
0.0
140
0.0
141
0.0
142
1.0
143
1.0
 70
   688
 72
     0
 73
     0
 74
     5
  7

 75
    16
 76
     0
 77
     2
 78
   300
147
1.0
148
0.0
149
0.0
100
AcDbLayout
  1
Layout2
 70
     1
 71
     2
 10
0.0
 20
0.0
 11
0.0
 21
0.0
 12
0.0
 22
0.0
 32
0.0
 14
0.0
 24
0.0
 34
0.0
 15
0.0
 25
0.0
 35
0.0
146
0.0
 13
0.0
 23
0.0
 33
0.0
 16
1.0
 26
0.0
 36
0.0
 17
0.0
 27
1.0
 37
0.0
 76
     0
330
23
  0
LAYOUT
  5
22
102
{ACAD_REACTORS
330
1A
102
}
330
1A
100
AcDbPlotSettings
  1

  2
DWG to PDF.pc3
  4
ISO_A3_(297.00_x_420.00_MM)
  6

 40
5.0
 41
17.0
 42
5.0
 43
17.0
 44
297.0
 45
420.0
 46
0.0
 47
0.0
 48
0.0
 49
0.0
140
0.0
141
0.0
142
1.0
143
1.0
 70
  1712
 72
     1
 73
     1
 74
     1
  7

 75
    16
 76
     0
 77
     2
 78
   300
147
1.0
148
0.0
149
0.0
100
AcDbLayout
  1
Model
 70
     1
 71
     0
 10
-210.0
 20
-148.5
 11
210.0
 21
148.5
 12
0.0
 22
0.0
 32
0.0
 14
-630.0
 24
-445.5
 34
0.0
 15
630.0
 25
445.5
 35
0.0
146
0.0
 13
0.0
 23
0.0
 33
0.0
 16
1.0
 26
0.0
 36
0.0
 17
0.0
 27
1.0
 37
0.0
 76
     0
330
1F
331
29
  0
MATERIAL
  5
45
102
{ACAD_REACTORS
330
43
102
}
330
43
100
AcDbMaterial
  1
ByBlock
 72
     1
 94
      127
  0
MATERIAL
  5
44
102
{ACAD_REACTORS
330
43
102
}
330
43
100
AcDbMaterial
  1
ByLayer
 72
     1
 94
      127
  0
MATERIAL
  5
46
102
{ACAD_REACTORS
330
43
102
}
330
43
100
AcDbMaterial
  1
Global
 72
     1
 94
      127
  0
MLEADERSTYLE
  5
6C
102
{ACAD_REACTORS
330
6B
102
}
330
6B
100
AcDbMLeaderStyle
179
     2
170
     2
171
     1
172
     0
 90
        2
 40
0.0
 41
0.0
173
     1
 91
-1056964608
340
14
 92
       -2
290
     1
 42
0.09
291
     1
 43
0.36
  3
Standard
341
0
 44
0.18
300

342
11
174
     1
178
     6
175
     1
176
     0
 93
-1056964608
 45
0.18
292
     0
297
     0
 46
0.18
343
0
 94
-1056964608
 47
1.0
 49
1.0
140
1.0
293
     1
141
0.0
294
     1
177
     0
142
1.0
295
     0
296
     0
143
0.125
271
     0
272
     9
273
     9
  0
MLINESTYLE
  5
18
102
{ACAD_REACTORS
330
17
102
}
330
17
100
AcDbMlineStyle
  2
Standard
 70
     0
  3

 62
   256
 51
90.0
 52
90.0
 71
     2
 49
0.5
 62
   256
  6
BYLAYER
 49
-0.5
 62
   256
  6
BYLAYER
  0
ACDBPLACEHOLDER
  5
F
102
{ACAD_REACTORS
330
E
102
}
330
E
  0
SCALE
  5
48
102
{ACAD_REACTORS
330
47
102
}
330
47
100
AcDbScale
 70
     0
300
1:1
140
1.0
141
1.0
290
     1
  0
SCALE
  5
49
102
{ACAD_REACTORS
330
47
102
}
330
47
100
AcDbScale
 70
     0
300
1:2
140
1.0
141
2.0
290
     0
  0
SCALE
  5
4A
102
{ACAD_REACTORS
330
47
102
}
330
47
100
AcDbScale
 70
     0
300
1:4
140
1.0
141
4.0
290
     0
  0
SCALE
  5
4B
102
{ACAD_REACTORS
330
47
102
}
330
47
100
AcDbScale
 70
     0
300
1:5
140
1.0
141
5.0
290
     0
  0
SCALE
  5
4C
102
{ACAD_REACTORS
330
47
102
}
330
47
100
AcDbScale
 70
     0
300
1:8
140
1.0
141
8.0
290
     0
  0
SCALE
  5
4D
102
{ACAD_REACTORS
330
47
102
}
330
47
100
AcDbScale
 70
     0
300
1:10
140
1.0
141
10.0
290
     0
  0
SCALE
  5
4E
102
{ACAD_REACTORS
330
47
102
}
330
47
100
AcDbScale
 70
     0
300
1:16
140
1.0
141
16.0
290
     0
  0
SCALE
  5
4F
102
{ACAD_REACTORS
330
47
102
}
330
47
100
AcDbScale
 70
     0
300
1:20
140
1.0
141
20.0
290
     0
  0
SCALE
  5
50
102
{ACAD_REACTORS
330
47
102
}
330
47
100
AcDbScale
 70
     0
300
1:30
140
1.0
141
30.0
290
     0
  0
SCALE
  5
51
102
{ACAD_REACTORS
330
47
102
}
330
47
100
AcDbScale
 70
     0
300
1:40
140
1.0
141
40.0
290
     0
  0
SCALE
  5
52
102
{ACAD_REACTORS
330
47
102
}
330
47
100
AcDbScale
 70
     0
300
1:50
140
1.0
141
50.0
290
     0
  0
SCALE
  5
53
102
{ACAD_REACTORS
330
47
102
}
330
47
100
AcDbScale
 70
     0
300
1:100
140
1.0
141
100.0
290
     0
  0
SCALE
  5
54
102
{ACAD_REACTORS
330
47
102
}
330
47
100
AcDbScale
 70
     0
300
2:1
140
2.0
141
1.0
290
     0
  0
SCALE
  5
55
102
{ACAD_REACTORS
330
47
102
}
330
47
100
AcDbScale
 70
     0
300
4:1
140
4.0
141
1.0
290
     0
  0
SCALE
  5
56
102
{ACAD_REACTORS
330
47
102
}
330
47
100
AcDbScale
 70
     0
300
8:1
140
8.0
141
1.0
290
     0
  0
SCALE
  5
57
102
{ACAD_REACTORS
330
47
102
}
330
47
100
AcDbScale
 70
     0
300
10:1
140
10.0
141
1.0
290
     0
  0
SCALE
  5
58
102
{ACAD_REACTORS
330
47
102
}
330
47
100
AcDbScale
 70
     0
300
100:1
140
100.0
141
1.0
290
     0
  0
SCALE
  5
59
102
{ACAD_REACTORS
330
47
102
}
330
47
100
AcDbScale
 70
     0
300
1/128" = 1'-0"
140
0.0078125
141
12.0
290
     0
  0
SCALE
  5
5A
102
{ACAD_REACTORS
330
47
102
}
330
47
100
AcDbScale
 70
     0
300
1/64" = 1'-0"
140
0.015625
141
12.0
290
     0
  0
SCALE
  5
5B
102
{ACAD_REACTORS
330
47
102
}
330
47
100
AcDbScale
 70
     0
300
1/32" = 1'-0"
140
0.03125
141
12.0
290
     0
  0
SCALE
  5
5C
102
{ACAD_REACTORS
330
47
102
}
330
47
100
AcDbScale
 70
     0
300
1/16" = 1'-0"
140
0.0625
141
12.0
290
     0
  0
SCALE
  5
5D
102
{ACAD_REACTORS
330
47
102
}
330
47
100
AcDbScale
 70
     0
300
3/32" = 1'-0"
140
0.09375
141
12.0
290
     0
  0
SCALE
  5
5E
102
{ACAD_REACTORS
330
47
102
}
330
47
100
AcDbScale
 70
     0
300
1/8" = 1'-0"
140
0.125
141
12.0
290
     0
  0
SCALE
  5
5F
102
{ACAD_REACTORS
330
47
102
}
330
47
100
AcDbScale
 70
     0
300
3/16" = 1'-0"
140
0.1875
141
12.0
290
     0
  0
SCALE
  5
60
102
{ACAD_REACTORS
330
47
102
}
330
47
100
AcDbScale
 70
     0
300
1/4" = 1'-0"
140
0.25
141
12.0
290
     0
  0
SCALE
  5
61
102
{ACAD_REACTORS
330
47
102
}
330
47
100
AcDbScale
 70
     0
300
3/8" = 1'-0"
140
0.375
141
12.0
290
     0
  0
SCALE
  5
62
102
{ACAD_REACTORS
330
47
102
}
330
47
100
AcDbScale
 70
     0
300
1/2" = 1'-0"
140
0.5
141
12.0
290
     0
  0
SCALE
  5
63
102
{ACAD_REACTORS
330
47
102
}
330
47
100
AcDbScale
 70
     0
300
3/4" = 1'-0"
140
0.75
141
12.0
290
     0
  0
SCALE
  5
64
102
{ACAD_REACTORS
330
47
102
}
330
47
100
AcDbScale
 70
     0
300
1" = 1'-0"
140
1.0
141
12.0
290
     0
  0
SCALE
  5
65
102
{ACAD_REACTORS
330
47
102
}
330
47
100
AcDbScale
 70
     0
300
1-1/2" = 1'-0"
140
1.5
141
12.0
290
     0
  0
SCALE
  5
66
102
{ACAD_REACTORS
330
47
102
}
330
47
100
AcDbScale
 70
     0
300
3" = 1'-0"
140
3.0
141
12.0
290
     0
  0
SCALE
  5
67
102
{ACAD_REACTORS
330
47
102
}
330
47
100
AcDbScale
 70
     0
300
6" = 1'-0"
140
6.0
141
12.0
290
     0
  0
SCALE
  5
68
102
{ACAD_REACTORS
330
47
102
}
330
47
100
AcDbScale
 70
     0
300
1'-0" = 1'-0"
140
12.0
141
12.0
290
     0
  0
TABLESTYLE
  5
6A
102
{ACAD_REACTORS
330
69
102
}
102
{ACAD_XDICTIONARY
360
3CF
102
}
330
69
100
AcDbTableStyle
  3
Standard
 70
     0
 71
     0
 40
0.06
 41
0.06
280
     0
281
     0
  7
Standard
140
0.18
170
     2
 62
     0
 63
   257
283
     0
 90
        4
 91
        0
  1

274
    -2
284
     1
 64
     0
275
    -2
285
     1
 65
     0
276
    -2
286
     1
 66
     0
277
    -2
287
     1
 67
     0
278
    -2
288
     1
 68
     0
279
    -2
289
     1
 69
     0
  7
Standard
140
0.25
170
     5
 62
     0
 63
   257
283
     0
 90
        4
 91
        0
  1

274
    -2
284
     1
 64
     0
275
    -2
285
     1
 65
     0
276
    -2
286
     1
 66
     0
277
    -2
287
     1
 67
     0
278
    -2
288
     1
 68
     0
279
    -2
289
     1
 69
     0
  7
Standard
140
0.18
170
     5
 62
     0
 63
   257
283
     0
 90
        4
 91
        0
  1

274
    -2
284
     1
 64
     0
275
    -2
285
     1
 65
     0
276
    -2
286
     1
 66
     0
277
    -2
287
     1
 67
     0
278
    -2
288
     1
 68
     0
279
    -2
289
     1
 69
     0
  0
VISUALSTYLE
  5
2F
102
{ACAD_REACTORS
330
2A
102
}
102
{ACAD_XDICTIONARY
360
3A7
102
}
330
2A
100
AcDbVisualStyle
  2
2dWireframe
 70
     4
177
     2
291
     0
 71
     0
176
     1
 72
     2
176
     1
 73
     0
176
     1
 90
        0
176
     1
 40
0.6
176
     1
 41
30.0
176
     1
 62
     5
 63
     7
421
 16777215
176
     1
 74
     1
176
     1
 91
        4
176
     1
 64
     7
176
     1
 65
   257
176
     1
 75
     1
176
     1
175
     1
176
     1
 42
1.0
176
     1
 92
        0
176
     1
 66
   257
176
     1
 43
1.0
176
     1
 76
     1
176
     1
 77
     6
176
     1
 78
     2
176
     1
 67
     7
176
     1
 79
     5
176
     1
170
     0
176
     1
171
     0
176
     1
290
     0
176
     1
 93
        1
176
     1
 44
0.0
176
     1
173
     0
176
     1
  0
VISUALSTYLE
  5
32
102
{ACAD_REACTORS
330
2A
102
}
102
{ACAD_XDICTIONARY
360
3AD
102
}
330
2A
100
AcDbVisualStyle
  2
Basic
 70
     7
177
     2
291
     1
 71
     1
176
     1
 72
     0
176
     1
 73
     1
176
     1
 90
        0
176
     1
 40
0.6
176
     1
 41
30.0
176
     1
 62
     5
 63
     7
421
 16777215
176
     1
 74
     0
176
     1
 91
        4
176
     1
 64
     7
176
     1
 65
   257
176
     1
 75
     1
176
     1
175
     1
176
     1
 42
1.0
176
     1
 92
        8
176
     1
 66
     7
176
     1
 43
1.0
176
     1
 76
     1
176
     1
 77
     6
176
     1
 78
     2
176
     1
 67
     7
176
     1
 79
     5
176
     1
170
     0
176
     1
171
     0
176
     1
290
     0
176
     1
 93
        1
176
     1
 44
0.0
176
     1
173
     0
176
     1
  0
VISUALSTYLE
  5
36
102
{ACAD_REACTORS
330
2A
102
}
102
{ACAD_XDICTIONARY
360
3B5
102
}
330
2A
100
AcDbVisualStyle
  2
Brighten
 70
    12
177
     2
291
     1
 71
     2
176
     1
 72
     2
176
     1
 73
     0
176
     1
 90
        0
176
     1
 40
0.6
176
     1
 41
30.0
176
     1
 62
     5
 63
     7
421
 16777215
176
     1
 74
     1
176
     1
 91
        4
176
     1
 64
     7
176
     1
 65
   257
176
     1
 75
     1
176
     1
175
     1
176
     1
 42
1.0
176
     1
 92
        8
176
     1
 66
     7
176
     1
 43
1.0
176
     1
 76
     1
176
     1
 77
     6
176
     1
 78
     2
176
     1
 67
     7
176
     1
 79
     5
176
     1
170
     0
176
     1
171
     0
176
     1
290
     0
176
     1
 93
        1
176
     1
 44
50.0
176
     1
173
     0
176
     1
  0
VISUALSTYLE
  5
3A
102
{ACAD_REACTORS
330
2A
102
}
102
{ACAD_XDICTIONARY
360
3BD
102
}
330
2A
100
AcDbVisualStyle
  2
ColorChange
 70
    16
177
     2
291
     1
 71
     2
176
     1
 72
     2
176
     1
 73
     3
176
     1
 90
        0
176
     1
 40
0.6
176
     1
 41
30.0
176
     1
 62
     5
 63
     8
421
  8421504
176
     1
 74
     1
176
     1
 91
        4
176
     1
 64
     7
176
     1
 65
   257
176
     1
 75
     1
176
     1
175
     1
176
     1
 42
1.0
176
     1
 92
        8
176
     1
 66
     8
424
  8421504
176
     1
 43
1.0
176
     1
 76
     1
176
     1
 77
     6
176
     1
 78
     2
176
     1
 67
     7
176
     1
 79
     5
176
     1
170
     0
176
     1
171
     0
176
     1
290
     0
176
     1
 93
        1
176
     1
 44
0.0
176
     1
173
     0
176
     1
  0
VISUALSTYLE
  5
34
102
{ACAD_REACTORS
330
2A
102
}
102
{ACAD_XDICTIONARY
360
3B1
102
}
330
2A
100
AcDbVisualStyle
  2
Conceptual
 70
     9
177
     2
291
     0
 71
     3
176
     1
 72
     2
176
     1
 73
     0
176
     1
 90
        0
176
     1
 40
0.6
176
     1
 41
30.0
176
     1
 62
     5
 63
     7
421
 16777215
176
     1
 74
     2
176
     1
 91
        2
176
     1
 64
     7
176
     1
 65
   257
176
     1
 75
     1
176
     1
175
     1
176
     1
 42
179.0
176
     1
 92
        8
176
     1
 66
     7
176
     1
 43
1.0
176
     1
 76
     1
176
     1
 77
     6
176
     1
 78
     2
176
     1
 67
     7
176
     1
 79
     3
176
     1
170
     0
176
     1
171
     0
176
     1
290
     0
176
     1
 93
        1
176
     1
 44
0.0
176
     1
173
     0
176
     1
  0
VISUALSTYLE
  5
35
102
{ACAD_REACTORS
330
2A
102
}
102
{ACAD_XDICTIONARY
360
3B3
102
}
330
2A
100
AcDbVisualStyle
  2
Dim
 70
    11
177
     2
291
     1
 71
     2
176
     1
 72
     2
176
     1
 73
     0
176
     1
 90
        0
176
     1
 40
0.6
176
     1
 41
30.0
176
     1
 62
     5
 63
     7
421
 16777215
176
     1
 74
     1
176
     1
 91
        4
176
     1
 64
     7
176
     1
 65
   257
176
     1
 75
     1
176
     1
175
     1
176
     1
 42
1.0
176
     1
 92
        8
176
     1
 66
     7
176
     1
 43
1.0
176
     1
 76
     1
176
     1
 77
     6
176
     1
 78
     2
176
     1
 67
     7
176
     1
 79
     5
176
     1
170
     0
176
     1
171
     0
176
     1
290
     0
176
     1
 93
        1
176
     1
 44
-50.0
176
     1
173
     0
176
     1
  0
VISUALSTYLE
  5
3D
102
{ACAD_REACTORS
330
2A
102
}
102
{ACAD_XDICTIONARY
360
3C3
102
}
330
2A
100
AcDbVisualStyle
  2
EdgeColorOff
 70
    22
177
     2
291
     1
 71
     2
176
     0
 72
     2
176
     0
 73
     0
176
     0
 90
        0
176
     0
 40
0.6
176
     0
 41
30.0
176
     0
 62
     5
 63
     7
421
 16777215
176
     0
 74
     1
176
     0
 91
        4
176
     0
 64
     7
176
     0
 65
   257
176
     0
 75
     1
176
     0
175
     1
176
     0
 42
1.0
176
     0
 92
        8
176
     2
 66
     7
176
     0
 43
1.0
176
     0
 76
     1
176
     0
 77
     6
176
     0
 78
     2
176
     0
 67
     7
176
     0
 79
     5
176
     0
170
     0
176
     0
171
     0
176
     0
290
     0
176
     0
 93
        1
176
     0
 44
0.0
176
     0
173
     0
176
     0
  0
VISUALSTYLE
  5
39
102
{ACAD_REACTORS
330
2A
102
}
102
{ACAD_XDICTIONARY
360
3BB
102
}
330
2A
100
AcDbVisualStyle
  2
Facepattern
 70
    15
177
     2
291
     1
 71
     2
176
     1
 72
     2
176
     1
 73
     0
176
     1
 90
        0
176
     1
 40
0.6
176
     1
 41
30.0
176
     1
 62
     5
 63
     7
421
 16777215
176
     1
 74
     1
176
     1
 91
        4
176
     1
 64
     7
176
     1
 65
   257
176
     1
 75
     1
176
     1
175
     1
176
     1
 42
1.0
176
     1
 92
        8
176
     1
 66
     7
176
     1
 43
1.0
176
     1
 76
     1
176
     1
 77
     6
176
     1
 78
     2
176
     1
 67
     7
176
     1
 79
     5
176
     1
170
     0
176
     1
171
     0
176
     1
290
     0
176
     1
 93
        1
176
     1
 44
0.0
176
     1
173
     0
176
     1
  0
VISUALSTYLE
  5
2B
102
{ACAD_REACTORS
330
2A
102
}
102
{ACAD_XDICTIONARY
360
39F
102
}
330
2A
100
AcDbVisualStyle
  2
Flat
 70
     0
177
     2
291
     1
 71
     2
176
     1
 72
     1
176
     1
 73
     1
176
     1
 90
        2
176
     1
 40
0.6
176
     1
 41
30.0
176
     1
 62
     5
 63
     7
421
 16777215
176
     1
 74
     0
176
     1
 91
        0
176
     1
 64
     7
176
     1
 65
   257
176
     1
 75
     1
176
     1
175
     1
176
     1
 42
1.0
176
     1
 92
        8
176
     1
 66
     7
176
     1
 43
1.0
176
     1
 76
     1
176
     1
 77
     6
176
     1
 78
     2
176
     1
 67
     7
176
     1
 79
     5
176
     1
170
     0
176
     1
171
     0
176
     1
290
     0
176
     1
 93
       13
176
     1
 44
0.0
176
     1
173
     0
176
     1
  0
VISUALSTYLE
  5
2C
102
{ACAD_REACTORS
330
2A
102
}
102
{ACAD_XDICTIONARY
360
3A1
102
}
330
2A
100
AcDbVisualStyle
  2
FlatWithEdges
 70
     1
177
     2
291
     1
 71
     2
176
     1
 72
     1
176
     1
 73
     1
176
     1
 90
        2
176
     1
 40
0.6
176
     1
 41
30.0
176
     1
 62
     5
 63
     7
421
 16777215
176
     1
 74
     1
176
     1
 91
        0
176
     1
 64
     7
176
     1
 65
   257
176
     1
 75
     1
176
     1
175
     1
176
     1
 42
1.0
176
     1
 92
        0
176
     1
 66
   257
176
     1
 43
1.0
176
     1
 76
     1
176
     1
 77
     6
176
     1
 78
     2
176
     1
 67
     7
176
     1
 79
     5
176
     1
170
     0
176
     1
171
     0
176
     1
290
     0
176
     1
 93
       13
176
     1
 44
0.0
176
     1
173
     0
176
     1
  0
VISUALSTYLE
  5
2D
102
{ACAD_REACTORS
330
2A
102
}
102
{ACAD_XDICTIONARY
360
3A3
102
}
330
2A
100
AcDbVisualStyle
  2
Gouraud
 70
     2
177
     2
291
     1
 71
     2
176
     1
 72
     2
176
     1
 73
     1
176
     1
 90
        2
176
     1
 40
0.6
176
     1
 41
30.0
176
     1
 62
     5
 63
     7
421
 16777215
176
     1
 74
     0
176
     1
 91
        0
176
     1
 64
     7
176
     1
 65
   257
176
     1
 75
     1
176
     1
175
     1
176
     1
 42
1.0
176
     1
 92
        0
176
     1
 66
     7
176
     1
 43
1.0
176
     1
 76
     1
176
     1
 77
     6
176
     1
 78
     2
176
     1
 67
     7
176
     1
 79
     5
176
     1
170
     0
176
     1
171
     0
176
     1
290
     0
176
     1
 93
       13
176
     1
 44
0.0
176
     1
173
     0
176
     1
  0
VISUALSTYLE
  5
2E
102
{ACAD_REACTORS
330
2A
102
}
102
{ACAD_XDICTIONARY
360
3A5
102
}
330
2A
100
AcDbVisualStyle
  2
GouraudWithEdges
 70
     3
177
     2
291
     1
 71
     2
176
     1
 72
     2
176
     1
 73
     1
176
     1
 90
        2
176
     1
 40
0.6
176
     1
 41
30.0
176
     1
 62
     5
 63
     7
421
 16777215
176
     1
 74
     1
176
     1
 91
        0
176
     1
 64
     7
176
     1
 65
   257
176
     1
 75
     1
176
     1
175
     1
176
     1
 42
1.0
176
     1
 92
        0
176
     1
 66
   257
176
     1
 43
1.0
176
     1
 76
     1
176
     1
 77
     6
176
     1
 78
     2
176
     1
 67
     7
176
     1
 79
     5
176
     1
170
     0
176
     1
171
     0
176
     1
290
     0
176
     1
 93
       13
176
     1
 44
0.0
176
     1
173
     0
176
     1
  0
VISUALSTYLE
  5
31
102
{ACAD_REACTORS
330
2A
102
}
102
{ACAD_XDICTIONARY
360
3AB
102
}
330
2A
100
AcDbVisualStyle
  2
Hidden
 70
     6
177
     2
291
     0
 71
     1
176
     1
 72
     2
176
     1
 73
     2
176
     1
 90
        0
176
     1
 40
0.6
176
     1
 41
30.0
176
     1
 62
     5
 63
     7
421
 16777215
176
     1
 74
     2
176
     1
 91
        2
176
     1
 64
     7
176
     1
 65
   257
176
     1
 75
     2
176
     1
175
     1
176
     1
 42
40.0
176
     1
 92
        0
176
     1
 66
   257
176
     1
 43
1.0
176
     1
 76
     1
176
     1
 77
     6
176
     1
 78
     2
176
     1
 67
     7
176
     1
 79
     3
176
     1
170
     0
176
     1
171
     0
176
     1
290
     0
176
     1
 93
        1
176
     1
 44
0.0
176
     1
173
     0
176
     1
  0
VISUALSTYLE
  5
3B
102
{ACAD_REACTORS
330
2A
102
}
102
{ACAD_XDICTIONARY
360
3BF
102
}
330
2A
100
AcDbVisualStyle
  2
JitterOff
 70
    20
177
     2
291
     1
 71
     2
176
     0
 72
     2
176
     0
 73
     0
176
     0
 90
        0
176
     0
 40
0.6
176
     0
 41
30.0
176
     0
 62
     5
 63
     7
421
 16777215
176
     0
 74
     1
176
     0
 91
        4
176
     0
 64
     7
176
     0
 65
   257
176
     0
 75
     1
176
     0
175
     1
176
     0
 42
1.0
176
     0
 92
       10
176
     2
 66
     7
176
     0
 43
1.0
176
     0
 76
     1
176
     0
 77
     6
176
     0
 78
     2
176
     0
 67
     7
176
     0
 79
     5
176
     0
170
     0
176
     0
171
     0
176
     0
290
     0
176
     0
 93
        1
176
     0
 44
0.0
176
     0
173
     0
176
     0
  0
VISUALSTYLE
  5
38
102
{ACAD_REACTORS
330
2A
102
}
102
{ACAD_XDICTIONARY
360
3B9
102
}
330
2A
100
AcDbVisualStyle
  2
Linepattern
 70
    14
177
     2
291
     1
 71
     2
176
     1
 72
     2
176
     1
 73
     0
176
     1
 90
        0
176
     1
 40
0.6
176
     1
 41
30.0
176
     1
 62
     5
 63
     7
421
 16777215
176
     1
 74
     1
176
     1
 91
        4
176
     1
 64
     7
176
     1
 65
   257
176
     1
 75
     7
176
     1
175
     7
176
     1
 42
1.0
176
     1
 92
        8
176
     1
 66
     7
176
     1
 43
1.0
176
     1
 76
     1
176
     1
 77
     6
176
     1
 78
     2
176
     1
 67
     7
176
     1
 79
     5
176
     1
170
     0
176
     1
171
     0
176
     1
290
     0
176
     1
 93
        1
176
     1
 44
0.0
176
     1
173
     0
176
     1
  0
VISUALSTYLE
  5
3C
102
{ACAD_REACTORS
330
2A
102
}
102
{ACAD_XDICTIONARY
360
3C1
102
}
330
2A
100
AcDbVisualStyle
  2
OverhangOff
 70
    21
177
     2
291
     1
 71
     2
176
     0
 72
     2
176
     0
 73
     0
176
     0
 90
        0
176
     0
 40
0.6
176
     0
 41
30.0
176
     0
 62
     5
 63
     7
421
 16777215
176
     0
 74
     1
176
     0
 91
        4
176
     0
 64
     7
176
     0
 65
   257
176
     0
 75
     1
176
     0
175
     1
176
     0
 42
1.0
176
     0
 92
        9
176
     2
 66
     7
176
     0
 43
1.0
176
     0
 76
     1
176
     0
 77
     6
176
     0
 78
     2
176
     0
 67
     7
176
     0
 79
     5
176
     0
170
     0
176
     0
171
     0
176
     0
290
     0
176
     0
 93
        1
176
     0
 44
0.0
176
     0
173
     0
176
     0
  0
VISUALSTYLE
  5
33
102
{ACAD_REACTORS
330
2A
102
}
102
{ACAD_XDICTIONARY
360
3AF
102
}
330
2A
100
AcDbVisualStyle
  2
Realistic
 70
     8
177
     2
291
     0
 71
     2
176
     1
 72
     3
176
     1
 73
     0
176
     1
 90
        2
176
     1
 40
0.6
176
     1
 41
30.0
176
     1
 62
     5
 63
     7
421
 16777215
176
     1
 74
     0
176
     1
 91
        0
176
     1
 64
     7
176
     1
 65
   257
176
     1
 75
     1
176
     1
175
     1
176
     1
 42
1.0
176
     1
 92
        8
176
     1
 66
   257
176
     1
 43
1.0
176
     1
 76
     1
176
     1
 77
     6
176
     1
 78
     2
176
     1
 67
     7
176
     1
 79
     3
176
     1
170
     0
176
     1
171
     0
176
     1
290
     0
176
     1
 93
       13
176
     1
 44
0.0
176
     1
173
     0
176
     1
  0
VISUALSTYLE
  5
42
102
{ACAD_REACTORS
330
2A
102
}
102
{ACAD_XDICTIONARY
360
3CD
102
}
330
2A
100
AcDbVisualStyle
  2
Shaded
 70
    27
177
     2
291
     0
 71
     2
176
     1
 72
     2
176
     1
 73
     1
176
     1
 90
        2
176
     1
 40
0.6
176
     1
 41
30.0
176
     1
 62
     5
 63
     7
421
 16777215
176
     1
 74
     0
176
     1
 91
        4
176
     1
 64
     7
176
     1
 65
   257
176
     1
 75
     1
176
     1
175
     1
176
     1
 42
1.0
176
     1
 92
        8
176
     1
 66
   257
176
     1
 43
1.0
176
     1
 76
     1
176
     1
 77
     6
176
     1
 78
     2
176
     1
 67
     8
425
  7895160
176
     1
 79
     3
176
     1
170
     0
176
     1
171
     0
176
     1
290
     0
176
     1
 93
        5
176
     1
 44
0.0
176
     1
173
     0
176
     1
  0
VISUALSTYLE
  5
41
102
{ACAD_REACTORS
330
2A
102
}
102
{ACAD_XDICTIONARY
360
3CB
102
}
330
2A
100
AcDbVisualStyle
  2
Shaded with edges
 70
    26
177
     2
291
     0
 71
     2
176
     1
 72
     2
176
     1
 73
     1
176
     1
 90
        2
176
     1
 40
0.6
176
     1
 41
30.0
176
     1
 62
     5
 63
     7
421
 16777215
176
     1
 74
     1
176
     1
 91
       10
176
     1
 64
     7
176
     1
 65
   257
176
     1
 75
     2
176
     1
175
     1
176
     1
 42
1.0
176
     1
 92
        8
176
     1
 66
   257
176
     1
 43
1.0
176
     1
 76
     1
176
     1
 77
     6
176
     1
 78
     2
176
     1
 67
     7
176
     1
 79
     3
176
     1
170
     0
176
     1
171
     0
176
     1
290
     0
176
     1
 93
        5
176
     1
 44
0.0
176
     1
173
     0
176
     1
  0
VISUALSTYLE
  5
3E
102
{ACAD_REACTORS
330
2A
102
}
102
{ACAD_XDICTIONARY
360
3C5
102
}
330
2A
100
AcDbVisualStyle
  2
Shades of Gray
 70
    23
177
     2
291
     0
 71
     2
176
     1
 72
     2
176
     1
 73
     3
176
     1
 90
        0
176
     1
 40
0.6
176
     1
 41
30.0
176
     1
 62
     5
 63
     7
421
 16777215
176
     1
 74
     2
176
     1
 91
        2
176
     1
 64
     7
176
     1
 65
     7
176
     1
 75
     1
176
     1
175
     1
176
     1
 42
40.0
176
     1
 92
        8
176
     1
 66
     7
176
     1
 43
1.0
176
     1
 76
     1
176
     1
 77
     6
176
     1
 78
     2
176
     1
 67
     7
176
     1
 79
     3
176
     1
170
     0
176
     1
171
     0
176
     1
290
     0
176
     1
 93
        1
176
     1
 44
0.0
176
     1
173
     0
176
     1
  0
VISUALSTYLE
  5
3F
102
{ACAD_REACTORS
330
2A
102
}
102
{ACAD_XDICTIONARY
360
3C7
102
}
330
2A
100
AcDbVisualStyle
  2
Sketchy
 70
    24
177
     2
291
     0
 71
     1
176
     1
 72
     2
176
     1
 73
     2
176
     1
 90
        0
176
     1
 40
0.6
176
     1
 41
30.0
176
     1
 62
     5
 63
     7
421
 16777215
176
     1
 74
     2
176
     1
 91
        2
176
     1
 64
     7
176
     1
 65
     7
176
     1
 75
     1
176
     1
175
     1
176
     1
 42
40.0
176
     1
 92
       11
176
     1
 66
     7
176
     1
 43
1.0
176
     1
 76
     1
176
     1
 77
     6
176
     1
 78
     2
176
     1
 67
     7
176
     1
 79
     6
176
     1
170
     0
176
     1
171
     0
176
     1
290
     0
176
     1
 93
        1
176
     1
 44
0.0
176
     1
173
     0
176
     1
  0
VISUALSTYLE
  5
37
102
{ACAD_REACTORS
330
2A
102
}
102
{ACAD_XDICTIONARY
360
3B7
102
}
330
2A
100
AcDbVisualStyle
  2
Thicken
 70
    13
177
     2
291
     1
 71
     2
176
     1
 72
     2
176
     1
 73
     0
176
     1
 90
        0
176
     1
 40
0.6
176
     1
 41
30.0
176
     1
 62
     5
 63
     7
421
 16777215
176
     1
 74
     1
176
     1
 91
        4
176
     1
 64
     7
176
     1
 65
   257
176
     1
 75
     1
176
     1
175
     1
176
     1
 42
1.0
176
     1
 92
       12
176
     1
 66
     7
176
     1
 43
1.0
176
     1
 76
     1
176
     1
 77
     6
176
     1
 78
     2
176
     1
 67
     7
176
     1
 79
     5
176
     1
170
     0
176
     1
171
     0
176
     1
290
     0
176
     1
 93
        1
176
     1
 44
0.0
176
     1
173
     0
176
     1
  0
VISUALSTYLE
  5
30
102
{ACAD_REACTORS
330
2A
102
}
102
{ACAD_XDICTIONARY
360
3A9
102
}
330
2A
100
AcDbVisualStyle
  2
Wireframe
 70
     5
177
     2
291
     0
 71
     0
176
     1
 72
     2
176
     1
 73
     0
176
     1
 90
        0
176
     1
 40
0.6
176
     1
 41
30.0
176
     1
 62
     5
 63
     7
421
 16777215
176
     1
 74
     1
176
     1
 91
        4
176
     1
 64
     7
176
     1
 65
   257
176
     1
 75
     1
176
     1
175
     1
176
     1
 42
1.0
176
     1
 92
        0
176
     1
 66
   257
176
     1
 43
1.0
176
     1
 76
     1
176
     1
 77
     6
176
     1
 78
     2
176
     1
 67
     7
176
     1
 79
     3
176
     1
170
     0
176
     1
171
     0
176
     1
290
     0
176
     1
 93
        1
176
     1
 44
0.0
176
     1
173
     0
176
     1
  0
VISUALSTYLE
  5
40
102
{ACAD_REACTORS
330
2A
102
}
102
{ACAD_XDICTIONARY
360
3C9
102
}
330
2A
100
AcDbVisualStyle
  2
X-Ray
 70
    25
177
     2
291
     0
 71
     2
176
     1
 72
     2
176
     1
 73
     1
176
     1
 90
        1
176
     1
 40
0.5
176
     1
 41
30.0
176
     1
 62
     5
 63
     7
421
 16777215
176
     1
 74
     1
176
     1
 91
        0
176
     1
 64
     7
176
     1
 65
   257
176
     1
 75
     1
176
     1
175
     1
176
     1
 42
1.0
176
     1
 92
        8
176
     1
 66
     7
176
     1
 43
1.0
176
     1
 76
     1
176
     1
 77
     6
176
     1
 78
     2
176
     1
 67
     7
176
     1
 79
     3
176
     1
170
     0
176
     1
171
     0
176
     1
290
     0
176
     1
 93
       13
176
     1
 44
0.0
176
     1
173
     0
176
     1
  0
DICTIONARYVAR
  5
39E
102
{ACAD_REACTORS
330
39D
102
}
330
39D
100
DictionaryVariables
280
     0
  1
1:1
  0
DICTIONARYVAR
  5
3D3
102
{ACAD_REACTORS
330
39D
102
}
330
39D
100
DictionaryVariables
280
     0
  1
Standard
  0
DICTIONARYVAR
  5
3D2
102
{ACAD_REACTORS
330
39D
102
}
330
39D
100
DictionaryVariables
280
     0
  1
Standard
  0
DICTIONARY
  5
3CF
330
6A
100
AcDbDictionary
280
     1
281
     1
  3
ACAD_ROUNDTRIP_2008_TABLESTYLE_CELLSTYLEMAP
360
3D0
  0
DICTIONARY
  5
3A7
330
2F
100
AcDbDictionary
280
     1
281
     1
  3
ACAD_XREC_ROUNDTRIP
360
3A8
  0
DICTIONARY
  5
3AD
330
32
100
AcDbDictionary
280
     1
281
     1
  3
ACAD_XREC_ROUNDTRIP
360
3AE
  0
DICTIONARY
  5
3B5
330
36
100
AcDbDictionary
280
     1
281
     1
  3
ACAD_XREC_ROUNDTRIP
360
3B6
  0
DICTIONARY
  5
3BD
330
3A
100
AcDbDictionary
280
     1
281
     1
  3
ACAD_XREC_ROUNDTRIP
360
3BE
  0
DICTIONARY
  5
3B1
330
34
100
AcDbDictionary
280
     1
281
     1
  3
ACAD_XREC_ROUNDTRIP
360
3B2
  0
DICTIONARY
  5
3B3
330
35
100
AcDbDictionary
280
     1
281
     1
  3
ACAD_XREC_ROUNDTRIP
360
3B4
  0
DICTIONARY
  5
3C3
330
3D
100
AcDbDictionary
280
     1
281
     1
  3
ACAD_XREC_ROUNDTRIP
360
3C4
  0
DICTIONARY
  5
3BB
330
39
100
AcDbDictionary
280
     1
281
     1
  3
ACAD_XREC_ROUNDTRIP
360
3BC
  0
DICTIONARY
  5
39F
330
2B
100
AcDbDictionary
280
     1
281
     1
  3
ACAD_XREC_ROUNDTRIP
360
3A0
  0
DICTIONARY
  5
3A1
330
2C
100
AcDbDictionary
280
     1
281
     1
  3
ACAD_XREC_ROUNDTRIP
360
3A2
  0
DICTIONARY
  5
3A3
330
2D
100
AcDbDictionary
280
     1
281
     1
  3
ACAD_XREC_ROUNDTRIP
360
3A4
  0
DICTIONARY
  5
3A5
330
2E
100
AcDbDictionary
280
     1
281
     1
  3
ACAD_XREC_ROUNDTRIP
360
3A6
  0
DICTIONARY
  5
3AB
330
31
100
AcDbDictionary
280
     1
281
     1
  3
ACAD_XREC_ROUNDTRIP
360
3AC
  0
DICTIONARY
  5
3BF
330
3B
100
AcDbDictionary
280
     1
281
     1
  3
ACAD_XREC_ROUNDTRIP
360
3C0
  0
DICTIONARY
  5
3B9
330
38
100
AcDbDictionary
280
     1
281
     1
  3
ACAD_XREC_ROUNDTRIP
360
3BA
  0
DICTIONARY
  5
3C1
330
3C
100
AcDbDictionary
280
     1
281
     1
  3
ACAD_XREC_ROUNDTRIP
360
3C2
  0
DICTIONARY
  5
3AF
330
33
100
AcDbDictionary
280
     1
281
     1
  3
ACAD_XREC_ROUNDTRIP
360
3B0
  0
DICTIONARY
  5
3CD
330
42
100
AcDbDictionary
280
     1
281
     1
  3
ACAD_XREC_ROUNDTRIP
360
3CE
  0
DICTIONARY
  5
3CB
330
41
100
AcDbDictionary
280
     1
281
     1
  3
ACAD_XREC_ROUNDTRIP
360
3CC
  0
DICTIONARY
  5
3C5
330
3E
100
AcDbDictionary
280
     1
281
     1
  3
ACAD_XREC_ROUNDTRIP
360
3C6
  0
DICTIONARY
  5
3C7
330
3F
100
AcDbDictionary
280
     1
281
     1
  3
ACAD_XREC_ROUNDTRIP
360
3C8
  0
DICTIONARY
  5
3B7
330
37
100
AcDbDictionary
280
     1
281
     1
  3
ACAD_XREC_ROUNDTRIP
360
3B8
  0
DICTIONARY
  5
3A9
330
30
100
AcDbDictionary
280
     1
281
     1
  3
ACAD_XREC_ROUNDTRIP
360
3AA
  0
DICTIONARY
  5
3C9
330
40
100
AcDbDictionary
280
     1
281
     1
  3
ACAD_XREC_ROUNDTRIP
360
3CA
  0
CELLSTYLEMAP
  5
3D0
102
{ACAD_REACTORS
330
3CF
102
}
330
3CF
100
AcDbCellStyleMap
 90
        3
300
CELLSTYLE
  1
TABLEFORMAT_BEGIN
 90
        5
170
     1
 91
        0
 92
    32768
 62
   257
 93
        1
300
CONTENTFORMAT
  1
CONTENTFORMAT_BEGIN
 90
        0
 91
        0
 92
        4
 93
        0
300

 40
0.0
140
1.0
 94
        5
 62
     0
340
11
144
0.25
309
CONTENTFORMAT_END
171
     1
301
MARGIN
  1
CELLMARGIN_BEGIN
 40
0.06
 40
0.06
 40
0.06
 40
0.06
 40
0.06
 40
0.06
309
CELLMARGIN_END
 94
        6
 95
        1
302
GRIDFORMAT
  1
GRIDFORMAT_BEGIN
 90
        0
 91
        1
 62
     0
 92
       -2
340
14
 93
        0
 40
0.045
309
GRIDFORMAT_END
 95
        2
302
GRIDFORMAT
  1
GRIDFORMAT_BEGIN
 90
        0
 91
        1
 62
     0
 92
       -2
340
14
 93
        0
 40
0.045
309
GRIDFORMAT_END
 95
        4
302
GRIDFORMAT
  1
GRIDFORMAT_BEGIN
 90
        0
 91
        1
 62
     0
 92
       -2
340
14
 93
        0
 40
0.045
309
GRIDFORMAT_END
 95
        8
302
GRIDFORMAT
  1
GRIDFORMAT_BEGIN
 90
        0
 91
        1
 62
     0
 92
       -2
340
14
 93
        0
 40
0.045
309
GRIDFORMAT_END
 95
       16
302
GRIDFORMAT
  1
GRIDFORMAT_BEGIN
 90
        0
 91
        1
 62
     0
 92
       -2
340
14
 93
        0
 40
0.045
309
GRIDFORMAT_END
 95
       32
302
GRIDFORMAT
  1
GRIDFORMAT_BEGIN
 90
        0
 91
        1
 62
     0
 92
       -2
340
14
 93
        0
 40
0.045
309
GRIDFORMAT_END
309
TABLEFORMAT_END
  1
CELLSTYLE_BEGIN
 90
        1
 91
        1
300
_TITLE
309
CELLSTYLE_END
300
CELLSTYLE
  1
TABLEFORMAT_BEGIN
 90
        5
170
     1
 91
        0
 92
        0
 62
   257
 93
        1
300
CONTENTFORMAT
  1
CONTENTFORMAT_BEGIN
 90
        0
 91
        0
 92
        4
 93
        0
300

 40
0.0
140
1.0
 94
        5
 62
     0
340
11
144
0.18
309
CONTENTFORMAT_END
171
     1
301
MARGIN
  1
CELLMARGIN_BEGIN
 40
0.06
 40
0.06
 40
0.06
 40
0.06
 40
0.06
 40
0.06
309
CELLMARGIN_END
 94
        6
 95
        1
302
GRIDFORMAT
  1
GRIDFORMAT_BEGIN
 90
        0
 91
        1
 62
     0
 92
       -2
340
14
 93
        0
 40
0.045
309
GRIDFORMAT_END
 95
        2
302
GRIDFORMAT
  1
GRIDFORMAT_BEGIN
 90
        0
 91
        1
 62
     0
 92
       -2
340
14
 93
        0
 40
0.045
309
GRIDFORMAT_END
 95
        4
302
GRIDFORMAT
  1
GRIDFORMAT_BEGIN
 90
        0
 91
        1
 62
     0
 92
       -2
340
14
 93
        0
 40
0.045
309
GRIDFORMAT_END
 95
        8
302
GRIDFORMAT
  1
GRIDFORMAT_BEGIN
 90
        0
 91
        1
 62
     0
 92
       -2
340
14
 93
        0
 40
0.045
309
GRIDFORMAT_END
 95
       16
302
GRIDFORMAT
  1
GRIDFORMAT_BEGIN
 90
        0
 91
        1
 62
     0
 92
       -2
340
14
 93
        0
 40
0.045
309
GRIDFORMAT_END
 95
       32
302
GRIDFORMAT
  1
GRIDFORMAT_BEGIN
 90
        0
 91
        1
 62
     0
 92
       -2
340
14
 93
        0
 40
0.045
309
GRIDFORMAT_END
309
TABLEFORMAT_END
  1
CELLSTYLE_BEGIN
 90
        2
 91
        1
300
_HEADER
309
CELLSTYLE_END
300
CELLSTYLE
  1
TABLEFORMAT_BEGIN
 90
        5
170
     1
 91
        0
 92
        0
 62
   257
 93
        1
300
CONTENTFORMAT
  1
CONTENTFORMAT_BEGIN
 90
        0
 91
        0
 92
        4
 93
        0
300

 40
0.0
140
1.0
 94
        2
 62
     0
340
11
144
0.18
309
CONTENTFORMAT_END
171
     1
301
MARGIN
  1
CELLMARGIN_BEGIN
 40
0.06
 40
0.06
 40
0.06
 40
0.06
 40
0.06
 40
0.06
309
CELLMARGIN_END
 94
        6
 95
        1
302
GRIDFORMAT
  1
GRIDFORMAT_BEGIN
 90
        0
 91
        1
 62
     0
 92
       -2
340
14
 93
        0
 40
0.045
309
GRIDFORMAT_END
 95
        2
302
GRIDFORMAT
  1
GRIDFORMAT_BEGIN
 90
        0
 91
        1
 62
     0
 92
       -2
340
14
 93
        0
 40
0.045
309
GRIDFORMAT_END
 95
        4
302
GRIDFORMAT
  1
GRIDFORMAT_BEGIN
 90
        0
 91
        1
 62
     0
 92
       -2
340
14
 93
        0
 40
0.045
309
GRIDFORMAT_END
 95
        8
302
GRIDFORMAT
  1
GRIDFORMAT_BEGIN
 90
        0
 91
        1
 62
     0
 92
       -2
340
14
 93
        0
 40
0.045
309
GRIDFORMAT_END
 95
       16
302
GRIDFORMAT
  1
GRIDFORMAT_BEGIN
 90
        0
 91
        1
 62
     0
 92
       -2
340
14
 93
        0
 40
0.045
309
GRIDFORMAT_END
 95
       32
302
GRIDFORMAT
  1
GRIDFORMAT_BEGIN
 90
        0
 91
        1
 62
     0
 92
       -2
340
14
 93
        0
 40
0.045
309
GRIDFORMAT_END
309
TABLEFORMAT_END
  1
CELLSTYLE_BEGIN
 90
        3
 91
        2
300
_DATA
309
CELLSTYLE_END
  0
XRECORD
  5
3A8
102
{ACAD_REACTORS
330
3A7
102
}
330
3A7
100
AcDbXrecord
280
     1
102
RTVSPost2010Prop28
280
     1
102
RTVSPost2010PropOp28
 70
     1
102
RTVSPost2010Prop29
280
     1
102
RTVSPost2010PropOp29
 70
     1
102
RTVSPost2010Prop30
280
     0
102
RTVSPost2010PropOp30
 70
     1
102
RTVSPost2010Prop31
280
     0
102
RTVSPost2010PropOp31
 70
     1
102
RTVSPost2010Prop32
280
     0
102
RTVSPost2010PropOp32
 70
     1
102
RTVSPost2010Prop33
280
     0
102
RTVSPost2010PropOp33
 70
     1
102
RTVSPost2010Prop34
280
     0
102
RTVSPost2010PropOp34
 70
     1
102
RTVSPost2010Prop35
280
     0
102
RTVSPost2010PropOp35
 70
     1
102
RTVSPost2010Prop36
280
     0
102
RTVSPost2010PropOp36
 70
     1
102
RTVSPost2010Prop37
 90
       50
102
RTVSPost2010PropOp37
 70
     1
102
RTVSPost2010Prop38
140
0.0
102
RTVSPost2010PropOp38
 70
     1
102
RTVSPost2010Prop39
140
1.0
102
RTVSPost2010PropOp39
 70
     1
102
RTVSPost2010Prop40
 90
        0
102
RTVSPost2010PropOp40
 70
     1
102
RTVSPost2010Prop41ColorIndex
 90
       18
102
RTVSPost2010Prop41ColorRGB
 90
        0
102
RTVSPost2010PropOp41
 70
     1
102
RTVSPost2010Prop42
 90
       50
102
RTVSPost2010PropOp42
 70
     1
102
RTVSPost2010Prop43
 90
        3
102
RTVSPost2010PropOp43
 70
     1
102
RTVSPost2010Prop44ColorIndex
 90
        5
102
RTVSPost2010Prop44ColorRGB
 90
      255
102
RTVSPost2010PropOp44
 70
     1
102
RTVSPost2010Prop45
280
     0
102
RTVSPost2010PropOp45
 70
     1
102
RTVSPost2010Prop46
 90
       50
102
RTVSPost2010PropOp46
 70
     1
102
RTVSPost2010Prop47
 90
       50
102
RTVSPost2010PropOp47
 70
     1
102
RTVSPost2010Prop48
 90
       50
102
RTVSPost2010PropOp48
 70
     1
102
RTVSPost2010Prop49
280
     0
102
RTVSPost2010PropOp49
 70
     1
102
RTVSPost2010Prop50
 90
       50
102
RTVSPost2010PropOp50
 70
     1
102
RTVSPost2010Prop51ColorIndex
 90
      256
102
RTVSPost2010Prop51ColorRGB
 90
-16777216
102
RTVSPost2010PropOp51
 70
     0
102
RTVSPost2010Prop52
140
1.0
102
RTVSPost2010PropOp52
 70
     0
102
RTVSPost2010Prop53
 90
        2
102
RTVSPost2010PropOp53
 70
     1
102
RTVSPost2010Prop54
  1
strokes_ogs.tif
102
RTVSPost2010PropOp54
 70
     1
102
RTVSPost2010Prop55
280
     0
102
RTVSPost2010PropOp55
 70
     1
102
RTVSPost2010Prop56
140
1.0
102
RTVSPost2010PropOp56
 70
     1
102
RTVSPost2010Prop57
140
1.0
102
RTVSPost2010PropOp57
 70
     1
  0
XRECORD
  5
3AE
102
{ACAD_REACTORS
330
3AD
102
}
330
3AD
100
AcDbXrecord
280
     1
102
RTVSPost2010Prop28
280
     0
102
RTVSPost2010PropOp28
 70
     1
102
RTVSPost2010Prop29
280
     1
102
RTVSPost2010PropOp29
 70
     1
102
RTVSPost2010Prop30
280
     1
102
RTVSPost2010PropOp30
 70
     1
102
RTVSPost2010Prop31
280
     0
102
RTVSPost2010PropOp31
 70
     1
102
RTVSPost2010Prop32
280
     0
102
RTVSPost2010PropOp32
 70
     1
102
RTVSPost2010Prop33
280
     0
102
RTVSPost2010PropOp33
 70
     1
102
RTVSPost2010Prop34
280
     0
102
RTVSPost2010PropOp34
 70
     1
102
RTVSPost2010Prop35
280
     0
102
RTVSPost2010PropOp35
 70
     1
102
RTVSPost2010Prop36
280
     0
102
RTVSPost2010PropOp36
 70
     1
102
RTVSPost2010Prop37
 90
       50
102
RTVSPost2010PropOp37
 70
     1
102
RTVSPost2010Prop38
140
0.0
102
RTVSPost2010PropOp38
 70
     1
102
RTVSPost2010Prop39
140
1.0
102
RTVSPost2010PropOp39
 70
     1
102
RTVSPost2010Prop40
 90
        0
102
RTVSPost2010PropOp40
 70
     1
102
RTVSPost2010Prop41ColorIndex
 90
       18
102
RTVSPost2010Prop41ColorRGB
 90
        0
102
RTVSPost2010PropOp41
 70
     1
102
RTVSPost2010Prop42
 90
       50
102
RTVSPost2010PropOp42
 70
     1
102
RTVSPost2010Prop43
 90
        3
102
RTVSPost2010PropOp43
 70
     1
102
RTVSPost2010Prop44ColorIndex
 90
        5
102
RTVSPost2010Prop44ColorRGB
 90
      255
102
RTVSPost2010PropOp44
 70
     1
102
RTVSPost2010Prop45
280
     0
102
RTVSPost2010PropOp45
 70
     1
102
RTVSPost2010Prop46
 90
       50
102
RTVSPost2010PropOp46
 70
     1
102
RTVSPost2010Prop47
 90
       50
102
RTVSPost2010PropOp47
 70
     1
102
RTVSPost2010Prop48
 90
       50
102
RTVSPost2010PropOp48
 70
     1
102
RTVSPost2010Prop49
280
     0
102
RTVSPost2010PropOp49
 70
     1
102
RTVSPost2010Prop50
 90
       50
102
RTVSPost2010PropOp50
 70
     1
102
RTVSPost2010Prop51ColorIndex
 90
      256
102
RTVSPost2010Prop51ColorRGB
 90
-16777216
102
RTVSPost2010PropOp51
 70
     0
102
RTVSPost2010Prop52
140
1.0
102
RTVSPost2010PropOp52
 70
     0
102
RTVSPost2010Prop53
 90
        2
102
RTVSPost2010PropOp53
 70
     1
102
RTVSPost2010Prop54
  1
strokes_ogs.tif
102
RTVSPost2010PropOp54
 70
     1
102
RTVSPost2010Prop55
280
     0
102
RTVSPost2010PropOp55
 70
     1
102
RTVSPost2010Prop56
140
1.0
102
RTVSPost2010PropOp56
 70
     1
102
RTVSPost2010Prop57
140
1.0
102
RTVSPost2010PropOp57
 70
     1
  0
XRECORD
  5
3B6
102
{ACAD_REACTORS
330
3B5
102
}
330
3B5
100
AcDbXrecord
280
     1
102
RTVSPost2010Prop28
280
     0
102
RTVSPost2010PropOp28
 70
     1
102
RTVSPost2010Prop29
280
     1
102
RTVSPost2010PropOp29
 70
     1
102
RTVSPost2010Prop30
280
     1
102
RTVSPost2010PropOp30
 70
     1
102
RTVSPost2010Prop31
280
     0
102
RTVSPost2010PropOp31
 70
     1
102
RTVSPost2010Prop32
280
     0
102
RTVSPost2010PropOp32
 70
     1
102
RTVSPost2010Prop33
280
     0
102
RTVSPost2010PropOp33
 70
     1
102
RTVSPost2010Prop34
280
     0
102
RTVSPost2010PropOp34
 70
     1
102
RTVSPost2010Prop35
280
     0
102
RTVSPost2010PropOp35
 70
     1
102
RTVSPost2010Prop36
280
     0
102
RTVSPost2010PropOp36
 70
     1
102
RTVSPost2010Prop37
 90
       50
102
RTVSPost2010PropOp37
 70
     1
102
RTVSPost2010Prop38
140
0.0
102
RTVSPost2010PropOp38
 70
     1
102
RTVSPost2010Prop39
140
1.0
102
RTVSPost2010PropOp39
 70
     1
102
RTVSPost2010Prop40
 90
        0
102
RTVSPost2010PropOp40
 70
     1
102
RTVSPost2010Prop41ColorIndex
 90
       18
102
RTVSPost2010Prop41ColorRGB
 90
        0
102
RTVSPost2010PropOp41
 70
     1
102
RTVSPost2010Prop42
 90
       50
102
RTVSPost2010PropOp42
 70
     1
102
RTVSPost2010Prop43
 90
        3
102
RTVSPost2010PropOp43
 70
     1
102
RTVSPost2010Prop44ColorIndex
 90
        5
102
RTVSPost2010Prop44ColorRGB
 90
      255
102
RTVSPost2010PropOp44
 70
     1
102
RTVSPost2010Prop45
280
     0
102
RTVSPost2010PropOp45
 70
     1
102
RTVSPost2010Prop46
 90
       50
102
RTVSPost2010PropOp46
 70
     1
102
RTVSPost2010Prop47
 90
       50
102
RTVSPost2010PropOp47
 70
     1
102
RTVSPost2010Prop48
 90
       50
102
RTVSPost2010PropOp48
 70
     1
102
RTVSPost2010Prop49
280
     0
102
RTVSPost2010PropOp49
 70
     1
102
RTVSPost2010Prop50
 90
       50
102
RTVSPost2010PropOp50
 70
     1
102
RTVSPost2010Prop51ColorIndex
 90
      256
102
RTVSPost2010Prop51ColorRGB
 90
-16777216
102
RTVSPost2010PropOp51
 70
     0
102
RTVSPost2010Prop52
140
1.0
102
RTVSPost2010PropOp52
 70
     0
102
RTVSPost2010Prop53
 90
        2
102
RTVSPost2010PropOp53
 70
     1
102
RTVSPost2010Prop54
  1
strokes_ogs.tif
102
RTVSPost2010PropOp54
 70
     1
102
RTVSPost2010Prop55
280
     0
102
RTVSPost2010PropOp55
 70
     1
102
RTVSPost2010Prop56
140
1.0
102
RTVSPost2010PropOp56
 70
     1
102
RTVSPost2010Prop57
140
1.0
102
RTVSPost2010PropOp57
 70
     1
  0
XRECORD
  5
3BE
102
{ACAD_REACTORS
330
3BD
102
}
330
3BD
100
AcDbXrecord
280
     1
102
RTVSPost2010Prop28
280
     0
102
RTVSPost2010PropOp28
 70
     1
102
RTVSPost2010Prop29
280
     1
102
RTVSPost2010PropOp29
 70
     1
102
RTVSPost2010Prop30
280
     1
102
RTVSPost2010PropOp30
 70
     1
102
RTVSPost2010Prop31
280
     0
102
RTVSPost2010PropOp31
 70
     1
102
RTVSPost2010Prop32
280
     0
102
RTVSPost2010PropOp32
 70
     1
102
RTVSPost2010Prop33
280
     0
102
RTVSPost2010PropOp33
 70
     1
102
RTVSPost2010Prop34
280
     0
102
RTVSPost2010PropOp34
 70
     1
102
RTVSPost2010Prop35
280
     0
102
RTVSPost2010PropOp35
 70
     1
102
RTVSPost2010Prop36
280
     0
102
RTVSPost2010PropOp36
 70
     1
102
RTVSPost2010Prop37
 90
       50
102
RTVSPost2010PropOp37
 70
     1
102
RTVSPost2010Prop38
140
0.0
102
RTVSPost2010PropOp38
 70
     1
102
RTVSPost2010Prop39
140
1.0
102
RTVSPost2010PropOp39
 70
     1
102
RTVSPost2010Prop40
 90
        0
102
RTVSPost2010PropOp40
 70
     1
102
RTVSPost2010Prop41ColorIndex
 90
       18
102
RTVSPost2010Prop41ColorRGB
 90
        0
102
RTVSPost2010PropOp41
 70
     1
102
RTVSPost2010Prop42
 90
       50
102
RTVSPost2010PropOp42
 70
     1
102
RTVSPost2010Prop43
 90
        3
102
RTVSPost2010PropOp43
 70
     1
102
RTVSPost2010Prop44ColorIndex
 90
        5
102
RTVSPost2010Prop44ColorRGB
 90
      255
102
RTVSPost2010PropOp44
 70
     1
102
RTVSPost2010Prop45
280
     0
102
RTVSPost2010PropOp45
 70
     1
102
RTVSPost2010Prop46
 90
       50
102
RTVSPost2010PropOp46
 70
     1
102
RTVSPost2010Prop47
 90
       50
102
RTVSPost2010PropOp47
 70
     1
102
RTVSPost2010Prop48
 90
       50
102
RTVSPost2010PropOp48
 70
     1
102
RTVSPost2010Prop49
280
     0
102
RTVSPost2010PropOp49
 70
     1
102
RTVSPost2010Prop50
 90
       50
102
RTVSPost2010PropOp50
 70
     1
102
RTVSPost2010Prop51ColorIndex
 90
      256
102
RTVSPost2010Prop51ColorRGB
 90
-16777216
102
RTVSPost2010PropOp51
 70
     0
102
RTVSPost2010Prop52
140
1.0
102
RTVSPost2010PropOp52
 70
     0
102
RTVSPost2010Prop53
 90
        2
102
RTVSPost2010PropOp53
 70
     1
102
RTVSPost2010Prop54
  1
strokes_ogs.tif
102
RTVSPost2010PropOp54
 70
     1
102
RTVSPost2010Prop55
280
     0
102
RTVSPost2010PropOp55
 70
     1
102
RTVSPost2010Prop56
140
1.0
102
RTVSPost2010PropOp56
 70
     1
102
RTVSPost2010Prop57
140
1.0
102
RTVSPost2010PropOp57
 70
     1
  0
XRECORD
  5
3B2
102
{ACAD_REACTORS
330
3B1
102
}
330
3B1
100
AcDbXrecord
280
     1
102
RTVSPost2010Prop28
280
     0
102
RTVSPost2010PropOp28
 70
     1
102
RTVSPost2010Prop29
280
     1
102
RTVSPost2010PropOp29
 70
     1
102
RTVSPost2010Prop30
280
     1
102
RTVSPost2010PropOp30
 70
     1
102
RTVSPost2010Prop31
280
     0
102
RTVSPost2010PropOp31
 70
     1
102
RTVSPost2010Prop32
280
     0
102
RTVSPost2010PropOp32
 70
     1
102
RTVSPost2010Prop33
280
     0
102
RTVSPost2010PropOp33
 70
     1
102
RTVSPost2010Prop34
280
     0
102
RTVSPost2010PropOp34
 70
     1
102
RTVSPost2010Prop35
280
     0
102
RTVSPost2010PropOp35
 70
     1
102
RTVSPost2010Prop36
280
     0
102
RTVSPost2010PropOp36
 70
     1
102
RTVSPost2010Prop37
 90
       50
102
RTVSPost2010PropOp37
 70
     1
102
RTVSPost2010Prop38
140
0.0
102
RTVSPost2010PropOp38
 70
     1
102
RTVSPost2010Prop39
140
1.0
102
RTVSPost2010PropOp39
 70
     1
102
RTVSPost2010Prop40
 90
        0
102
RTVSPost2010PropOp40
 70
     1
102
RTVSPost2010Prop41ColorIndex
 90
       18
102
RTVSPost2010Prop41ColorRGB
 90
        0
102
RTVSPost2010PropOp41
 70
     1
102
RTVSPost2010Prop42
 90
       50
102
RTVSPost2010PropOp42
 70
     1
102
RTVSPost2010Prop43
 90
        3
102
RTVSPost2010PropOp43
 70
     1
102
RTVSPost2010Prop44ColorIndex
 90
        5
102
RTVSPost2010Prop44ColorRGB
 90
      255
102
RTVSPost2010PropOp44
 70
     1
102
RTVSPost2010Prop45
280
     0
102
RTVSPost2010PropOp45
 70
     1
102
RTVSPost2010Prop46
 90
       50
102
RTVSPost2010PropOp46
 70
     1
102
RTVSPost2010Prop47
 90
       50
102
RTVSPost2010PropOp47
 70
     1
102
RTVSPost2010Prop48
 90
       50
102
RTVSPost2010PropOp48
 70
     1
102
RTVSPost2010Prop49
280
     0
102
RTVSPost2010PropOp49
 70
     1
102
RTVSPost2010Prop50
 90
       50
102
RTVSPost2010PropOp50
 70
     1
102
RTVSPost2010Prop51ColorIndex
 90
      256
102
RTVSPost2010Prop51ColorRGB
 90
-16777216
102
RTVSPost2010PropOp51
 70
     0
102
RTVSPost2010Prop52
140
1.0
102
RTVSPost2010PropOp52
 70
     0
102
RTVSPost2010Prop53
 90
        2
102
RTVSPost2010PropOp53
 70
     1
102
RTVSPost2010Prop54
  1
strokes_ogs.tif
102
RTVSPost2010PropOp54
 70
     1
102
RTVSPost2010Prop55
280
     0
102
RTVSPost2010PropOp55
 70
     1
102
RTVSPost2010Prop56
140
1.0
102
RTVSPost2010PropOp56
 70
     1
102
RTVSPost2010Prop57
140
1.0
102
RTVSPost2010PropOp57
 70
     1
  0
XRECORD
  5
3B4
102
{ACAD_REACTORS
330
3B3
102
}
330
3B3
100
AcDbXrecord
280
     1
102
RTVSPost2010Prop28
280
     0
102
RTVSPost2010PropOp28
 70
     1
102
RTVSPost2010Prop29
280
     1
102
RTVSPost2010PropOp29
 70
     1
102
RTVSPost2010Prop30
280
     1
102
RTVSPost2010PropOp30
 70
     1
102
RTVSPost2010Prop31
280
     0
102
RTVSPost2010PropOp31
 70
     1
102
RTVSPost2010Prop32
280
     0
102
RTVSPost2010PropOp32
 70
     1
102
RTVSPost2010Prop33
280
     0
102
RTVSPost2010PropOp33
 70
     1
102
RTVSPost2010Prop34
280
     0
102
RTVSPost2010PropOp34
 70
     1
102
RTVSPost2010Prop35
280
     0
102
RTVSPost2010PropOp35
 70
     1
102
RTVSPost2010Prop36
280
     0
102
RTVSPost2010PropOp36
 70
     1
102
RTVSPost2010Prop37
 90
       50
102
RTVSPost2010PropOp37
 70
     1
102
RTVSPost2010Prop38
140
0.0
102
RTVSPost2010PropOp38
 70
     1
102
RTVSPost2010Prop39
140
1.0
102
RTVSPost2010PropOp39
 70
     1
102
RTVSPost2010Prop40
 90
        0
102
RTVSPost2010PropOp40
 70
     1
102
RTVSPost2010Prop41ColorIndex
 90
       18
102
RTVSPost2010Prop41ColorRGB
 90
        0
102
RTVSPost2010PropOp41
 70
     1
102
RTVSPost2010Prop42
 90
       50
102
RTVSPost2010PropOp42
 70
     1
102
RTVSPost2010Prop43
 90
        3
102
RTVSPost2010PropOp43
 70
     1
102
RTVSPost2010Prop44ColorIndex
 90
        5
102
RTVSPost2010Prop44ColorRGB
 90
      255
102
RTVSPost2010PropOp44
 70
     1
102
RTVSPost2010Prop45
280
     0
102
RTVSPost2010PropOp45
 70
     1
102
RTVSPost2010Prop46
 90
       50
102
RTVSPost2010PropOp46
 70
     1
102
RTVSPost2010Prop47
 90
       50
102
RTVSPost2010PropOp47
 70
     1
102
RTVSPost2010Prop48
 90
       50
102
RTVSPost2010PropOp48
 70
     1
102
RTVSPost2010Prop49
280
     0
102
RTVSPost2010PropOp49
 70
     1
102
RTVSPost2010Prop50
 90
       50
102
RTVSPost2010PropOp50
 70
     1
102
RTVSPost2010Prop51ColorIndex
 90
      256
102
RTVSPost2010Prop51ColorRGB
 90
-16777216
102
RTVSPost2010PropOp51
 70
     0
102
RTVSPost2010Prop52
140
1.0
102
RTVSPost2010PropOp52
 70
     0
102
RTVSPost2010Prop53
 90
        2
102
RTVSPost2010PropOp53
 70
     1
102
RTVSPost2010Prop54
  1
strokes_ogs.tif
102
RTVSPost2010PropOp54
 70
     1
102
RTVSPost2010Prop55
280
     0
102
RTVSPost2010PropOp55
 70
     1
102
RTVSPost2010Prop56
140
1.0
102
RTVSPost2010PropOp56
 70
     1
102
RTVSPost2010Prop57
140
1.0
102
RTVSPost2010PropOp57
 70
     1
  0
XRECORD
  5
3C4
102
{ACAD_REACTORS
330
3C3
102
}
330
3C3
100
AcDbXrecord
280
     1
102
RTVSPost2010Prop28
280
     0
102
RTVSPost2010PropOp28
 70
     0
102
RTVSPost2010Prop29
280
     1
102
RTVSPost2010PropOp29
 70
     0
102
RTVSPost2010Prop30
280
     1
102
RTVSPost2010PropOp30
 70
     0
102
RTVSPost2010Prop31
280
     0
102
RTVSPost2010PropOp31
 70
     0
102
RTVSPost2010Prop32
280
     0
102
RTVSPost2010PropOp32
 70
     0
102
RTVSPost2010Prop33
280
     0
102
RTVSPost2010PropOp33
 70
     0
102
RTVSPost2010Prop34
280
     0
102
RTVSPost2010PropOp34
 70
     0
102
RTVSPost2010Prop35
280
     0
102
RTVSPost2010PropOp35
 70
     0
102
RTVSPost2010Prop36
280
     0
102
RTVSPost2010PropOp36
 70
     0
102
RTVSPost2010Prop37
 90
       50
102
RTVSPost2010PropOp37
 70
     0
102
RTVSPost2010Prop38
140
0.0
102
RTVSPost2010PropOp38
 70
     0
102
RTVSPost2010Prop39
140
1.0
102
RTVSPost2010PropOp39
 70
     0
102
RTVSPost2010Prop40
 90
        0
102
RTVSPost2010PropOp40
 70
     0
102
RTVSPost2010Prop41ColorIndex
 90
       18
102
RTVSPost2010Prop41ColorRGB
 90
        0
102
RTVSPost2010PropOp41
 70
     0
102
RTVSPost2010Prop42
 90
       50
102
RTVSPost2010PropOp42
 70
     0
102
RTVSPost2010Prop43
 90
        3
102
RTVSPost2010PropOp43
 70
     0
102
RTVSPost2010Prop44ColorIndex
 90
        5
102
RTVSPost2010Prop44ColorRGB
 90
      255
102
RTVSPost2010PropOp44
 70
     0
102
RTVSPost2010Prop45
280
     0
102
RTVSPost2010PropOp45
 70
     0
102
RTVSPost2010Prop46
 90
       50
102
RTVSPost2010PropOp46
 70
     0
102
RTVSPost2010Prop47
 90
       50
102
RTVSPost2010PropOp47
 70
     0
102
RTVSPost2010Prop48
 90
       50
102
RTVSPost2010PropOp48
 70
     0
102
RTVSPost2010Prop49
280
     0
102
RTVSPost2010PropOp49
 70
     0
102
RTVSPost2010Prop50
 90
       50
102
RTVSPost2010PropOp50
 70
     0
102
RTVSPost2010Prop51ColorIndex
 90
      256
102
RTVSPost2010Prop51ColorRGB
 90
-16777216
102
RTVSPost2010PropOp51
 70
     0
102
RTVSPost2010Prop52
140
1.0
102
RTVSPost2010PropOp52
 70
     0
102
RTVSPost2010Prop53
 90
        2
102
RTVSPost2010PropOp53
 70
     0
102
RTVSPost2010Prop54
  1
strokes_ogs.tif
102
RTVSPost2010PropOp54
 70
     0
102
RTVSPost2010Prop55
280
     0
102
RTVSPost2010PropOp55
 70
     0
102
RTVSPost2010Prop56
140
1.0
102
RTVSPost2010PropOp56
 70
     0
102
RTVSPost2010Prop57
140
1.0
102
RTVSPost2010PropOp57
 70
     0
  0
XRECORD
  5
3BC
102
{ACAD_REACTORS
330
3BB
102
}
330
3BB
100
AcDbXrecord
280
     1
102
RTVSPost2010Prop28
280
     0
102
RTVSPost2010PropOp28
 70
     1
102
RTVSPost2010Prop29
280
     1
102
RTVSPost2010PropOp29
 70
     1
102
RTVSPost2010Prop30
280
     1
102
RTVSPost2010PropOp30
 70
     1
102
RTVSPost2010Prop31
280
     0
102
RTVSPost2010PropOp31
 70
     1
102
RTVSPost2010Prop32
280
     0
102
RTVSPost2010PropOp32
 70
     1
102
RTVSPost2010Prop33
280
     0
102
RTVSPost2010PropOp33
 70
     1
102
RTVSPost2010Prop34
280
     0
102
RTVSPost2010PropOp34
 70
     1
102
RTVSPost2010Prop35
280
     0
102
RTVSPost2010PropOp35
 70
     1
102
RTVSPost2010Prop36
280
     0
102
RTVSPost2010PropOp36
 70
     1
102
RTVSPost2010Prop37
 90
       50
102
RTVSPost2010PropOp37
 70
     1
102
RTVSPost2010Prop38
140
0.0
102
RTVSPost2010PropOp38
 70
     1
102
RTVSPost2010Prop39
140
1.0
102
RTVSPost2010PropOp39
 70
     1
102
RTVSPost2010Prop40
 90
        0
102
RTVSPost2010PropOp40
 70
     1
102
RTVSPost2010Prop41ColorIndex
 90
       18
102
RTVSPost2010Prop41ColorRGB
 90
        0
102
RTVSPost2010PropOp41
 70
     1
102
RTVSPost2010Prop42
 90
       50
102
RTVSPost2010PropOp42
 70
     1
102
RTVSPost2010Prop43
 90
        3
102
RTVSPost2010PropOp43
 70
     1
102
RTVSPost2010Prop44ColorIndex
 90
        5
102
RTVSPost2010Prop44ColorRGB
 90
      255
102
RTVSPost2010PropOp44
 70
     1
102
RTVSPost2010Prop45
280
     0
102
RTVSPost2010PropOp45
 70
     1
102
RTVSPost2010Prop46
 90
       50
102
RTVSPost2010PropOp46
 70
     1
102
RTVSPost2010Prop47
 90
       50
102
RTVSPost2010PropOp47
 70
     1
102
RTVSPost2010Prop48
 90
       50
102
RTVSPost2010PropOp48
 70
     1
102
RTVSPost2010Prop49
280
     0
102
RTVSPost2010PropOp49
 70
     1
102
RTVSPost2010Prop50
 90
       50
102
RTVSPost2010PropOp50
 70
     1
102
RTVSPost2010Prop51ColorIndex
 90
      256
102
RTVSPost2010Prop51ColorRGB
 90
-16777216
102
RTVSPost2010PropOp51
 70
     0
102
RTVSPost2010Prop52
140
1.0
102
RTVSPost2010PropOp52
 70
     0
102
RTVSPost2010Prop53
 90
        2
102
RTVSPost2010PropOp53
 70
     1
102
RTVSPost2010Prop54
  1
strokes_ogs.tif
102
RTVSPost2010PropOp54
 70
     1
102
RTVSPost2010Prop55
280
     0
102
RTVSPost2010PropOp55
 70
     1
102
RTVSPost2010Prop56
140
1.0
102
RTVSPost2010PropOp56
 70
     1
102
RTVSPost2010Prop57
140
1.0
102
RTVSPost2010PropOp57
 70
     1
  0
XRECORD
  5
3A0
102
{ACAD_REACTORS
330
39F
102
}
330
39F
100
AcDbXrecord
280
     1
102
RTVSPost2010Prop28
280
     0
102
RTVSPost2010PropOp28
 70
     1
102
RTVSPost2010Prop29
280
     1
102
RTVSPost2010PropOp29
 70
     1
102
RTVSPost2010Prop30
280
     1
102
RTVSPost2010PropOp30
 70
     1
102
RTVSPost2010Prop31
280
     0
102
RTVSPost2010PropOp31
 70
     1
102
RTVSPost2010Prop32
280
     0
102
RTVSPost2010PropOp32
 70
     1
102
RTVSPost2010Prop33
280
     0
102
RTVSPost2010PropOp33
 70
     1
102
RTVSPost2010Prop34
280
     0
102
RTVSPost2010PropOp34
 70
     1
102
RTVSPost2010Prop35
280
     0
102
RTVSPost2010PropOp35
 70
     1
102
RTVSPost2010Prop36
280
     0
102
RTVSPost2010PropOp36
 70
     1
102
RTVSPost2010Prop37
 90
       50
102
RTVSPost2010PropOp37
 70
     1
102
RTVSPost2010Prop38
140
0.0
102
RTVSPost2010PropOp38
 70
     1
102
RTVSPost2010Prop39
140
1.0
102
RTVSPost2010PropOp39
 70
     1
102
RTVSPost2010Prop40
 90
        0
102
RTVSPost2010PropOp40
 70
     1
102
RTVSPost2010Prop41ColorIndex
 90
       18
102
RTVSPost2010Prop41ColorRGB
 90
        0
102
RTVSPost2010PropOp41
 70
     1
102
RTVSPost2010Prop42
 90
       50
102
RTVSPost2010PropOp42
 70
     1
102
RTVSPost2010Prop43
 90
        3
102
RTVSPost2010PropOp43
 70
     1
102
RTVSPost2010Prop44ColorIndex
 90
        5
102
RTVSPost2010Prop44ColorRGB
 90
      255
102
RTVSPost2010PropOp44
 70
     1
102
RTVSPost2010Prop45
280
     0
102
RTVSPost2010PropOp45
 70
     1
102
RTVSPost2010Prop46
 90
       50
102
RTVSPost2010PropOp46
 70
     1
102
RTVSPost2010Prop47
 90
       50
102
RTVSPost2010PropOp47
 70
     1
102
RTVSPost2010Prop48
 90
       50
102
RTVSPost2010PropOp48
 70
     1
102
RTVSPost2010Prop49
280
     0
102
RTVSPost2010PropOp49
 70
     1
102
RTVSPost2010Prop50
 90
       50
102
RTVSPost2010PropOp50
 70
     1
102
RTVSPost2010Prop51ColorIndex
 90
      256
102
RTVSPost2010Prop51ColorRGB
 90
-16777216
102
RTVSPost2010PropOp51
 70
     0
102
RTVSPost2010Prop52
140
1.0
102
RTVSPost2010PropOp52
 70
     0
102
RTVSPost2010Prop53
 90
        2
102
RTVSPost2010PropOp53
 70
     1
102
RTVSPost2010Prop54
  1
strokes_ogs.tif
102
RTVSPost2010PropOp54
 70
     1
102
RTVSPost2010Prop55
280
     0
102
RTVSPost2010PropOp55
 70
     1
102
RTVSPost2010Prop56
140
1.0
102
RTVSPost2010PropOp56
 70
     1
102
RTVSPost2010Prop57
140
1.0
102
RTVSPost2010PropOp57
 70
     1
  0
XRECORD
  5
3A2
102
{ACAD_REACTORS
330
3A1
102
}
330
3A1
100
AcDbXrecord
280
     1
102
RTVSPost2010Prop28
280
     0
102
RTVSPost2010PropOp28
 70
     1
102
RTVSPost2010Prop29
280
     1
102
RTVSPost2010PropOp29
 70
     1
102
RTVSPost2010Prop30
280
     1
102
RTVSPost2010PropOp30
 70
     1
102
RTVSPost2010Prop31
280
     0
102
RTVSPost2010PropOp31
 70
     1
102
RTVSPost2010Prop32
280
     0
102
RTVSPost2010PropOp32
 70
     1
102
RTVSPost2010Prop33
280
     0
102
RTVSPost2010PropOp33
 70
     1
102
RTVSPost2010Prop34
280
     0
102
RTVSPost2010PropOp34
 70
     1
102
RTVSPost2010Prop35
280
     0
102
RTVSPost2010PropOp35
 70
     1
102
RTVSPost2010Prop36
280
     0
102
RTVSPost2010PropOp36
 70
     1
102
RTVSPost2010Prop37
 90
       50
102
RTVSPost2010PropOp37
 70
     1
102
RTVSPost2010Prop38
140
0.0
102
RTVSPost2010PropOp38
 70
     1
102
RTVSPost2010Prop39
140
1.0
102
RTVSPost2010PropOp39
 70
     1
102
RTVSPost2010Prop40
 90
        0
102
RTVSPost2010PropOp40
 70
     1
102
RTVSPost2010Prop41ColorIndex
 90
       18
102
RTVSPost2010Prop41ColorRGB
 90
        0
102
RTVSPost2010PropOp41
 70
     1
102
RTVSPost2010Prop42
 90
       50
102
RTVSPost2010PropOp42
 70
     1
102
RTVSPost2010Prop43
 90
        3
102
RTVSPost2010PropOp43
 70
     1
102
RTVSPost2010Prop44ColorIndex
 90
        5
102
RTVSPost2010Prop44ColorRGB
 90
      255
102
RTVSPost2010PropOp44
 70
     1
102
RTVSPost2010Prop45
280
     0
102
RTVSPost2010PropOp45
 70
     1
102
RTVSPost2010Prop46
 90
       50
102
RTVSPost2010PropOp46
 70
     1
102
RTVSPost2010Prop47
 90
       50
102
RTVSPost2010PropOp47
 70
     1
102
RTVSPost2010Prop48
 90
       50
102
RTVSPost2010PropOp48
 70
     1
102
RTVSPost2010Prop49
280
     0
102
RTVSPost2010PropOp49
 70
     1
102
RTVSPost2010Prop50
 90
       50
102
RTVSPost2010PropOp50
 70
     1
102
RTVSPost2010Prop51ColorIndex
 90
      256
102
RTVSPost2010Prop51ColorRGB
 90
-16777216
102
RTVSPost2010PropOp51
 70
     0
102
RTVSPost2010Prop52
140
1.0
102
RTVSPost2010PropOp52
 70
     0
102
RTVSPost2010Prop53
 90
        2
102
RTVSPost2010PropOp53
 70
     1
102
RTVSPost2010Prop54
  1
strokes_ogs.tif
102
RTVSPost2010PropOp54
 70
     1
102
RTVSPost2010Prop55
280
     0
102
RTVSPost2010PropOp55
 70
     1
102
RTVSPost2010Prop56
140
1.0
102
RTVSPost2010PropOp56
 70
     1
102
RTVSPost2010Prop57
140
1.0
102
RTVSPost2010PropOp57
 70
     1
  0
XRECORD
  5
3A4
102
{ACAD_REACTORS
330
3A3
102
}
330
3A3
100
AcDbXrecord
280
     1
102
RTVSPost2010Prop28
280
     0
102
RTVSPost2010PropOp28
 70
     1
102
RTVSPost2010Prop29
280
     1
102
RTVSPost2010PropOp29
 70
     1
102
RTVSPost2010Prop30
280
     1
102
RTVSPost2010PropOp30
 70
     1
102
RTVSPost2010Prop31
280
     0
102
RTVSPost2010PropOp31
 70
     1
102
RTVSPost2010Prop32
280
     0
102
RTVSPost2010PropOp32
 70
     1
102
RTVSPost2010Prop33
280
     0
102
RTVSPost2010PropOp33
 70
     1
102
RTVSPost2010Prop34
280
     0
102
RTVSPost2010PropOp34
 70
     1
102
RTVSPost2010Prop35
280
     0
102
RTVSPost2010PropOp35
 70
     1
102
RTVSPost2010Prop36
280
     0
102
RTVSPost2010PropOp36
 70
     1
102
RTVSPost2010Prop37
 90
       50
102
RTVSPost2010PropOp37
 70
     1
102
RTVSPost2010Prop38
140
0.0
102
RTVSPost2010PropOp38
 70
     1
102
RTVSPost2010Prop39
140
1.0
102
RTVSPost2010PropOp39
 70
     1
102
RTVSPost2010Prop40
 90
        0
102
RTVSPost2010PropOp40
 70
     1
102
RTVSPost2010Prop41ColorIndex
 90
       18
102
RTVSPost2010Prop41ColorRGB
 90
        0
102
RTVSPost2010PropOp41
 70
     1
102
RTVSPost2010Prop42
 90
       50
102
RTVSPost2010PropOp42
 70
     1
102
RTVSPost2010Prop43
 90
        3
102
RTVSPost2010PropOp43
 70
     1
102
RTVSPost2010Prop44ColorIndex
 90
        5
102
RTVSPost2010Prop44ColorRGB
 90
      255
102
RTVSPost2010PropOp44
 70
     1
102
RTVSPost2010Prop45
280
     0
102
RTVSPost2010PropOp45
 70
     1
102
RTVSPost2010Prop46
 90
       50
102
RTVSPost2010PropOp46
 70
     1
102
RTVSPost2010Prop47
 90
       50
102
RTVSPost2010PropOp47
 70
     1
102
RTVSPost2010Prop48
 90
       50
102
RTVSPost2010PropOp48
 70
     1
102
RTVSPost2010Prop49
280
     0
102
RTVSPost2010PropOp49
 70
     1
102
RTVSPost2010Prop50
 90
       50
102
RTVSPost2010PropOp50
 70
     1
102
RTVSPost2010Prop51ColorIndex
 90
      256
102
RTVSPost2010Prop51ColorRGB
 90
-16777216
102
RTVSPost2010PropOp51
 70
     0
102
RTVSPost2010Prop52
140
1.0
102
RTVSPost2010PropOp52
 70
     0
102
RTVSPost2010Prop53
 90
        2
102
RTVSPost2010PropOp53
 70
     1
102
RTVSPost2010Prop54
  1
strokes_ogs.tif
102
RTVSPost2010PropOp54
 70
     1
102
RTVSPost2010Prop55
280
     0
102
RTVSPost2010PropOp55
 70
     1
102
RTVSPost2010Prop56
140
1.0
102
RTVSPost2010PropOp56
 70
     1
102
RTVSPost2010Prop57
140
1.0
102
RTVSPost2010PropOp57
 70
     1
  0
XRECORD
  5
3A6
102
{ACAD_REACTORS
330
3A5
102
}
330
3A5
100
AcDbXrecord
280
     1
102
RTVSPost2010Prop28
280
     0
102
RTVSPost2010PropOp28
 70
     1
102
RTVSPost2010Prop29
280
     1
102
RTVSPost2010PropOp29
 70
     1
102
RTVSPost2010Prop30
280
     1
102
RTVSPost2010PropOp30
 70
     1
102
RTVSPost2010Prop31
280
     0
102
RTVSPost2010PropOp31
 70
     1
102
RTVSPost2010Prop32
280
     0
102
RTVSPost2010PropOp32
 70
     1
102
RTVSPost2010Prop33
280
     0
102
RTVSPost2010PropOp33
 70
     1
102
RTVSPost2010Prop34
280
     0
102
RTVSPost2010PropOp34
 70
     1
102
RTVSPost2010Prop35
280
     0
102
RTVSPost2010PropOp35
 70
     1
102
RTVSPost2010Prop36
280
     0
102
RTVSPost2010PropOp36
 70
     1
102
RTVSPost2010Prop37
 90
       50
102
RTVSPost2010PropOp37
 70
     1
102
RTVSPost2010Prop38
140
0.0
102
RTVSPost2010PropOp38
 70
     1
102
RTVSPost2010Prop39
140
1.0
102
RTVSPost2010PropOp39
 70
     1
102
RTVSPost2010Prop40
 90
        0
102
RTVSPost2010PropOp40
 70
     1
102
RTVSPost2010Prop41ColorIndex
 90
       18
102
RTVSPost2010Prop41ColorRGB
 90
        0
102
RTVSPost2010PropOp41
 70
     1
102
RTVSPost2010Prop42
 90
       50
102
RTVSPost2010PropOp42
 70
     1
102
RTVSPost2010Prop43
 90
        3
102
RTVSPost2010PropOp43
 70
     1
102
RTVSPost2010Prop44ColorIndex
 90
        5
102
RTVSPost2010Prop44ColorRGB
 90
      255
102
RTVSPost2010PropOp44
 70
     1
102
RTVSPost2010Prop45
280
     0
102
RTVSPost2010PropOp45
 70
     1
102
RTVSPost2010Prop46
 90
       50
102
RTVSPost2010PropOp46
 70
     1
102
RTVSPost2010Prop47
 90
       50
102
RTVSPost2010PropOp47
 70
     1
102
RTVSPost2010Prop48
 90
       50
102
RTVSPost2010PropOp48
 70
     1
102
RTVSPost2010Prop49
280
     0
102
RTVSPost2010PropOp49
 70
     1
102
RTVSPost2010Prop50
 90
       50
102
RTVSPost2010PropOp50
 70
     1
102
RTVSPost2010Prop51ColorIndex
 90
      256
102
RTVSPost2010Prop51ColorRGB
 90
-16777216
102
RTVSPost2010PropOp51
 70
     0
102
RTVSPost2010Prop52
140
1.0
102
RTVSPost2010PropOp52
 70
     0
102
RTVSPost2010Prop53
 90
        2
102
RTVSPost2010PropOp53
 70
     1
102
RTVSPost2010Prop54
  1
strokes_ogs.tif
102
RTVSPost2010PropOp54
 70
     1
102
RTVSPost2010Prop55
280
     0
102
RTVSPost2010PropOp55
 70
     1
102
RTVSPost2010Prop56
140
1.0
102
RTVSPost2010PropOp56
 70
     1
102
RTVSPost2010Prop57
140
1.0
102
RTVSPost2010PropOp57
 70
     1
  0
XRECORD
  5
3AC
102
{ACAD_REACTORS
330
3AB
102
}
330
3AB
100
AcDbXrecord
280
     1
102
RTVSPost2010Prop28
280
     0
102
RTVSPost2010PropOp28
 70
     1
102
RTVSPost2010Prop29
280
     1
102
RTVSPost2010PropOp29
 70
     1
102
RTVSPost2010Prop30
280
     1
102
RTVSPost2010PropOp30
 70
     1
102
RTVSPost2010Prop31
280
     0
102
RTVSPost2010PropOp31
 70
     1
102
RTVSPost2010Prop32
280
     0
102
RTVSPost2010PropOp32
 70
     1
102
RTVSPost2010Prop33
280
     0
102
RTVSPost2010PropOp33
 70
     1
102
RTVSPost2010Prop34
280
     0
102
RTVSPost2010PropOp34
 70
     1
102
RTVSPost2010Prop35
280
     0
102
RTVSPost2010PropOp35
 70
     1
102
RTVSPost2010Prop36
280
     0
102
RTVSPost2010PropOp36
 70
     1
102
RTVSPost2010Prop37
 90
       50
102
RTVSPost2010PropOp37
 70
     1
102
RTVSPost2010Prop38
140
0.0
102
RTVSPost2010PropOp38
 70
     1
102
RTVSPost2010Prop39
140
1.0
102
RTVSPost2010PropOp39
 70
     1
102
RTVSPost2010Prop40
 90
        0
102
RTVSPost2010PropOp40
 70
     1
102
RTVSPost2010Prop41ColorIndex
 90
       18
102
RTVSPost2010Prop41ColorRGB
 90
        0
102
RTVSPost2010PropOp41
 70
     1
102
RTVSPost2010Prop42
 90
       50
102
RTVSPost2010PropOp42
 70
     1
102
RTVSPost2010Prop43
 90
        3
102
RTVSPost2010PropOp43
 70
     1
102
RTVSPost2010Prop44ColorIndex
 90
        5
102
RTVSPost2010Prop44ColorRGB
 90
      255
102
RTVSPost2010PropOp44
 70
     1
102
RTVSPost2010Prop45
280
     0
102
RTVSPost2010PropOp45
 70
     1
102
RTVSPost2010Prop46
 90
       50
102
RTVSPost2010PropOp46
 70
     1
102
RTVSPost2010Prop47
 90
       50
102
RTVSPost2010PropOp47
 70
     1
102
RTVSPost2010Prop48
 90
       50
102
RTVSPost2010PropOp48
 70
     1
102
RTVSPost2010Prop49
280
     0
102
RTVSPost2010PropOp49
 70
     1
102
RTVSPost2010Prop50
 90
       50
102
RTVSPost2010PropOp50
 70
     1
102
RTVSPost2010Prop51ColorIndex
 90
      256
102
RTVSPost2010Prop51ColorRGB
 90
-16777216
102
RTVSPost2010PropOp51
 70
     0
102
RTVSPost2010Prop52
140
1.0
102
RTVSPost2010PropOp52
 70
     0
102
RTVSPost2010Prop53
 90
        2
102
RTVSPost2010PropOp53
 70
     1
102
RTVSPost2010Prop54
  1
strokes_ogs.tif
102
RTVSPost2010PropOp54
 70
     1
102
RTVSPost2010Prop55
280
     0
102
RTVSPost2010PropOp55
 70
     1
102
RTVSPost2010Prop56
140
1.0
102
RTVSPost2010PropOp56
 70
     1
102
RTVSPost2010Prop57
140
1.0
102
RTVSPost2010PropOp57
 70
     1
  0
XRECORD
  5
3C0
102
{ACAD_REACTORS
330
3BF
102
}
330
3BF
100
AcDbXrecord
280
     1
102
RTVSPost2010Prop28
280
     0
102
RTVSPost2010PropOp28
 70
     0
102
RTVSPost2010Prop29
280
     1
102
RTVSPost2010PropOp29
 70
     0
102
RTVSPost2010Prop30
280
     1
102
RTVSPost2010PropOp30
 70
     0
102
RTVSPost2010Prop31
280
     0
102
RTVSPost2010PropOp31
 70
     0
102
RTVSPost2010Prop32
280
     0
102
RTVSPost2010PropOp32
 70
     0
102
RTVSPost2010Prop33
280
     0
102
RTVSPost2010PropOp33
 70
     0
102
RTVSPost2010Prop34
280
     0
102
RTVSPost2010PropOp34
 70
     0
102
RTVSPost2010Prop35
280
     0
102
RTVSPost2010PropOp35
 70
     0
102
RTVSPost2010Prop36
280
     0
102
RTVSPost2010PropOp36
 70
     0
102
RTVSPost2010Prop37
 90
       50
102
RTVSPost2010PropOp37
 70
     0
102
RTVSPost2010Prop38
140
0.0
102
RTVSPost2010PropOp38
 70
     0
102
RTVSPost2010Prop39
140
1.0
102
RTVSPost2010PropOp39
 70
     0
102
RTVSPost2010Prop40
 90
        0
102
RTVSPost2010PropOp40
 70
     0
102
RTVSPost2010Prop41ColorIndex
 90
       18
102
RTVSPost2010Prop41ColorRGB
 90
        0
102
RTVSPost2010PropOp41
 70
     0
102
RTVSPost2010Prop42
 90
       50
102
RTVSPost2010PropOp42
 70
     0
102
RTVSPost2010Prop43
 90
        3
102
RTVSPost2010PropOp43
 70
     0
102
RTVSPost2010Prop44ColorIndex
 90
        5
102
RTVSPost2010Prop44ColorRGB
 90
      255
102
RTVSPost2010PropOp44
 70
     0
102
RTVSPost2010Prop45
280
     0
102
RTVSPost2010PropOp45
 70
     0
102
RTVSPost2010Prop46
 90
       50
102
RTVSPost2010PropOp46
 70
     0
102
RTVSPost2010Prop47
 90
       50
102
RTVSPost2010PropOp47
 70
     0
102
RTVSPost2010Prop48
 90
       50
102
RTVSPost2010PropOp48
 70
     0
102
RTVSPost2010Prop49
280
     0
102
RTVSPost2010PropOp49
 70
     0
102
RTVSPost2010Prop50
 90
       50
102
RTVSPost2010PropOp50
 70
     0
102
RTVSPost2010Prop51ColorIndex
 90
      256
102
RTVSPost2010Prop51ColorRGB
 90
-16777216
102
RTVSPost2010PropOp51
 70
     0
102
RTVSPost2010Prop52
140
1.0
102
RTVSPost2010PropOp52
 70
     0
102
RTVSPost2010Prop53
 90
        2
102
RTVSPost2010PropOp53
 70
     0
102
RTVSPost2010Prop54
  1
strokes_ogs.tif
102
RTVSPost2010PropOp54
 70
     0
102
RTVSPost2010Prop55
280
     0
102
RTVSPost2010PropOp55
 70
     0
102
RTVSPost2010Prop56
140
1.0
102
RTVSPost2010PropOp56
 70
     0
102
RTVSPost2010Prop57
140
1.0
102
RTVSPost2010PropOp57
 70
     0
  0
XRECORD
  5
3BA
102
{ACAD_REACTORS
330
3B9
102
}
330
3B9
100
AcDbXrecord
280
     1
102
RTVSPost2010Prop28
280
     0
102
RTVSPost2010PropOp28
 70
     1
102
RTVSPost2010Prop29
280
     1
102
RTVSPost2010PropOp29
 70
     1
102
RTVSPost2010Prop30
280
     1
102
RTVSPost2010PropOp30
 70
     1
102
RTVSPost2010Prop31
280
     0
102
RTVSPost2010PropOp31
 70
     1
102
RTVSPost2010Prop32
280
     0
102
RTVSPost2010PropOp32
 70
     1
102
RTVSPost2010Prop33
280
     0
102
RTVSPost2010PropOp33
 70
     1
102
RTVSPost2010Prop34
280
     0
102
RTVSPost2010PropOp34
 70
     1
102
RTVSPost2010Prop35
280
     0
102
RTVSPost2010PropOp35
 70
     1
102
RTVSPost2010Prop36
280
     0
102
RTVSPost2010PropOp36
 70
     1
102
RTVSPost2010Prop37
 90
       50
102
RTVSPost2010PropOp37
 70
     1
102
RTVSPost2010Prop38
140
0.0
102
RTVSPost2010PropOp38
 70
     1
102
RTVSPost2010Prop39
140
1.0
102
RTVSPost2010PropOp39
 70
     1
102
RTVSPost2010Prop40
 90
        0
102
RTVSPost2010PropOp40
 70
     1
102
RTVSPost2010Prop41ColorIndex
 90
       18
102
RTVSPost2010Prop41ColorRGB
 90
        0
102
RTVSPost2010PropOp41
 70
     1
102
RTVSPost2010Prop42
 90
       50
102
RTVSPost2010PropOp42
 70
     1
102
RTVSPost2010Prop43
 90
        3
102
RTVSPost2010PropOp43
 70
     1
102
RTVSPost2010Prop44ColorIndex
 90
        5
102
RTVSPost2010Prop44ColorRGB
 90
      255
102
RTVSPost2010PropOp44
 70
     1
102
RTVSPost2010Prop45
280
     0
102
RTVSPost2010PropOp45
 70
     1
102
RTVSPost2010Prop46
 90
       50
102
RTVSPost2010PropOp46
 70
     1
102
RTVSPost2010Prop47
 90
       50
102
RTVSPost2010PropOp47
 70
     1
102
RTVSPost2010Prop48
 90
       50
102
RTVSPost2010PropOp48
 70
     1
102
RTVSPost2010Prop49
280
     0
102
RTVSPost2010PropOp49
 70
     1
102
RTVSPost2010Prop50
 90
       50
102
RTVSPost2010PropOp50
 70
     1
102
RTVSPost2010Prop51ColorIndex
 90
      256
102
RTVSPost2010Prop51ColorRGB
 90
-16777216
102
RTVSPost2010PropOp51
 70
     0
102
RTVSPost2010Prop52
140
1.0
102
RTVSPost2010PropOp52
 70
     0
102
RTVSPost2010Prop53
 90
        2
102
RTVSPost2010PropOp53
 70
     1
102
RTVSPost2010Prop54
  1
strokes_ogs.tif
102
RTVSPost2010PropOp54
 70
     1
102
RTVSPost2010Prop55
280
     0
102
RTVSPost2010PropOp55
 70
     1
102
RTVSPost2010Prop56
140
1.0
102
RTVSPost2010PropOp56
 70
     1
102
RTVSPost2010Prop57
140
1.0
102
RTVSPost2010PropOp57
 70
     1
  0
XRECORD
  5
3C2
102
{ACAD_REACTORS
330
3C1
102
}
330
3C1
100
AcDbXrecord
280
     1
102
RTVSPost2010Prop28
280
     0
102
RTVSPost2010PropOp28
 70
     0
102
RTVSPost2010Prop29
280
     1
102
RTVSPost2010PropOp29
 70
     0
102
RTVSPost2010Prop30
280
     1
102
RTVSPost2010PropOp30
 70
     0
102
RTVSPost2010Prop31
280
     0
102
RTVSPost2010PropOp31
 70
     0
102
RTVSPost2010Prop32
280
     0
102
RTVSPost2010PropOp32
 70
     0
102
RTVSPost2010Prop33
280
     0
102
RTVSPost2010PropOp33
 70
     0
102
RTVSPost2010Prop34
280
     0
102
RTVSPost2010PropOp34
 70
     0
102
RTVSPost2010Prop35
280
     0
102
RTVSPost2010PropOp35
 70
     0
102
RTVSPost2010Prop36
280
     0
102
RTVSPost2010PropOp36
 70
     0
102
RTVSPost2010Prop37
 90
       50
102
RTVSPost2010PropOp37
 70
     0
102
RTVSPost2010Prop38
140
0.0
102
RTVSPost2010PropOp38
 70
     0
102
RTVSPost2010Prop39
140
1.0
102
RTVSPost2010PropOp39
 70
     0
102
RTVSPost2010Prop40
 90
        0
102
RTVSPost2010PropOp40
 70
     0
102
RTVSPost2010Prop41ColorIndex
 90
       18
102
RTVSPost2010Prop41ColorRGB
 90
        0
102
RTVSPost2010PropOp41
 70
     0
102
RTVSPost2010Prop42
 90
       50
102
RTVSPost2010PropOp42
 70
     0
102
RTVSPost2010Prop43
 90
        3
102
RTVSPost2010PropOp43
 70
     0
102
RTVSPost2010Prop44ColorIndex
 90
        5
102
RTVSPost2010Prop44ColorRGB
 90
      255
102
RTVSPost2010PropOp44
 70
     0
102
RTVSPost2010Prop45
280
     0
102
RTVSPost2010PropOp45
 70
     0
102
RTVSPost2010Prop46
 90
       50
102
RTVSPost2010PropOp46
 70
     0
102
RTVSPost2010Prop47
 90
       50
102
RTVSPost2010PropOp47
 70
     0
102
RTVSPost2010Prop48
 90
       50
102
RTVSPost2010PropOp48
 70
     0
102
RTVSPost2010Prop49
280
     0
102
RTVSPost2010PropOp49
 70
     0
102
RTVSPost2010Prop50
 90
       50
102
RTVSPost2010PropOp50
 70
     0
102
RTVSPost2010Prop51ColorIndex
 90
      256
102
RTVSPost2010Prop51ColorRGB
 90
-16777216
102
RTVSPost2010PropOp51
 70
     0
102
RTVSPost2010Prop52
140
1.0
102
RTVSPost2010PropOp52
 70
     0
102
RTVSPost2010Prop53
 90
        2
102
RTVSPost2010PropOp53
 70
     0
102
RTVSPost2010Prop54
  1
strokes_ogs.tif
102
RTVSPost2010PropOp54
 70
     0
102
RTVSPost2010Prop55
280
     0
102
RTVSPost2010PropOp55
 70
     0
102
RTVSPost2010Prop56
140
1.0
102
RTVSPost2010PropOp56
 70
     0
102
RTVSPost2010Prop57
140
1.0
102
RTVSPost2010PropOp57
 70
     0
  0
XRECORD
  5
3B0
102
{ACAD_REACTORS
330
3AF
102
}
330
3AF
100
AcDbXrecord
280
     1
102
RTVSPost2010Prop28
280
     0
102
RTVSPost2010PropOp28
 70
     1
102
RTVSPost2010Prop29
280
     1
102
RTVSPost2010PropOp29
 70
     1
102
RTVSPost2010Prop30
280
     1
102
RTVSPost2010PropOp30
 70
     1
102
RTVSPost2010Prop31
280
     0
102
RTVSPost2010PropOp31
 70
     1
102
RTVSPost2010Prop32
280
     0
102
RTVSPost2010PropOp32
 70
     1
102
RTVSPost2010Prop33
280
     0
102
RTVSPost2010PropOp33
 70
     1
102
RTVSPost2010Prop34
280
     0
102
RTVSPost2010PropOp34
 70
     1
102
RTVSPost2010Prop35
280
     0
102
RTVSPost2010PropOp35
 70
     1
102
RTVSPost2010Prop36
280
     0
102
RTVSPost2010PropOp36
 70
     1
102
RTVSPost2010Prop37
 90
       50
102
RTVSPost2010PropOp37
 70
     1
102
RTVSPost2010Prop38
140
0.0
102
RTVSPost2010PropOp38
 70
     1
102
RTVSPost2010Prop39
140
1.0
102
RTVSPost2010PropOp39
 70
     1
102
RTVSPost2010Prop40
 90
        0
102
RTVSPost2010PropOp40
 70
     1
102
RTVSPost2010Prop41ColorIndex
 90
       18
102
RTVSPost2010Prop41ColorRGB
 90
        0
102
RTVSPost2010PropOp41
 70
     1
102
RTVSPost2010Prop42
 90
       50
102
RTVSPost2010PropOp42
 70
     1
102
RTVSPost2010Prop43
 90
        3
102
RTVSPost2010PropOp43
 70
     1
102
RTVSPost2010Prop44ColorIndex
 90
        5
102
RTVSPost2010Prop44ColorRGB
 90
      255
102
RTVSPost2010PropOp44
 70
     1
102
RTVSPost2010Prop45
280
     0
102
RTVSPost2010PropOp45
 70
     1
102
RTVSPost2010Prop46
 90
       50
102
RTVSPost2010PropOp46
 70
     1
102
RTVSPost2010Prop47
 90
       50
102
RTVSPost2010PropOp47
 70
     1
102
RTVSPost2010Prop48
 90
       50
102
RTVSPost2010PropOp48
 70
     1
102
RTVSPost2010Prop49
280
     0
102
RTVSPost2010PropOp49
 70
     1
102
RTVSPost2010Prop50
 90
       50
102
RTVSPost2010PropOp50
 70
     1
102
RTVSPost2010Prop51ColorIndex
 90
      256
102
RTVSPost2010Prop51ColorRGB
 90
-16777216
102
RTVSPost2010PropOp51
 70
     0
102
RTVSPost2010Prop52
140
1.0
102
RTVSPost2010PropOp52
 70
     0
102
RTVSPost2010Prop53
 90
        2
102
RTVSPost2010PropOp53
 70
     1
102
RTVSPost2010Prop54
  1
strokes_ogs.tif
102
RTVSPost2010PropOp54
 70
     1
102
RTVSPost2010Prop55
280
     0
102
RTVSPost2010PropOp55
 70
     1
102
RTVSPost2010Prop56
140
1.0
102
RTVSPost2010PropOp56
 70
     1
102
RTVSPost2010Prop57
140
1.0
102
RTVSPost2010PropOp57
 70
     1
  0
XRECORD
  5
3CE
102
{ACAD_REACTORS
330
3CD
102
}
330
3CD
100
AcDbXrecord
280
     1
102
RTVSPost2010Prop28
280
     0
102
RTVSPost2010PropOp28
 70
     1
102
RTVSPost2010Prop29
280
     1
102
RTVSPost2010PropOp29
 70
     1
102
RTVSPost2010Prop30
280
     1
102
RTVSPost2010PropOp30
 70
     1
102
RTVSPost2010Prop31
280
     0
102
RTVSPost2010PropOp31
 70
     1
102
RTVSPost2010Prop32
280
     0
102
RTVSPost2010PropOp32
 70
     1
102
RTVSPost2010Prop33
280
     0
102
RTVSPost2010PropOp33
 70
     1
102
RTVSPost2010Prop34
280
     0
102
RTVSPost2010PropOp34
 70
     1
102
RTVSPost2010Prop35
280
     0
102
RTVSPost2010PropOp35
 70
     1
102
RTVSPost2010Prop36
280
     0
102
RTVSPost2010PropOp36
 70
     1
102
RTVSPost2010Prop37
 90
       50
102
RTVSPost2010PropOp37
 70
     1
102
RTVSPost2010Prop38
140
0.0
102
RTVSPost2010PropOp38
 70
     1
102
RTVSPost2010Prop39
140
1.0
102
RTVSPost2010PropOp39
 70
     1
102
RTVSPost2010Prop40
 90
        0
102
RTVSPost2010PropOp40
 70
     1
102
RTVSPost2010Prop41ColorIndex
 90
       18
102
RTVSPost2010Prop41ColorRGB
 90
        0
102
RTVSPost2010PropOp41
 70
     1
102
RTVSPost2010Prop42
 90
       50
102
RTVSPost2010PropOp42
 70
     1
102
RTVSPost2010Prop43
 90
        3
102
RTVSPost2010PropOp43
 70
     1
102
RTVSPost2010Prop44ColorIndex
 90
        5
102
RTVSPost2010Prop44ColorRGB
 90
      255
102
RTVSPost2010PropOp44
 70
     1
102
RTVSPost2010Prop45
280
     0
102
RTVSPost2010PropOp45
 70
     1
102
RTVSPost2010Prop46
 90
       50
102
RTVSPost2010PropOp46
 70
     1
102
RTVSPost2010Prop47
 90
       50
102
RTVSPost2010PropOp47
 70
     1
102
RTVSPost2010Prop48
 90
       50
102
RTVSPost2010PropOp48
 70
     1
102
RTVSPost2010Prop49
280
     0
102
RTVSPost2010PropOp49
 70
     1
102
RTVSPost2010Prop50
 90
       50
102
RTVSPost2010PropOp50
 70
     1
102
RTVSPost2010Prop51ColorIndex
 90
      256
102
RTVSPost2010Prop51ColorRGB
 90
-16777216
102
RTVSPost2010PropOp51
 70
     0
102
RTVSPost2010Prop52
140
1.0
102
RTVSPost2010PropOp52
 70
     0
102
RTVSPost2010Prop53
 90
        2
102
RTVSPost2010PropOp53
 70
     1
102
RTVSPost2010Prop54
  1
strokes_ogs.tif
102
RTVSPost2010PropOp54
 70
     1
102
RTVSPost2010Prop55
280
     0
102
RTVSPost2010PropOp55
 70
     1
102
RTVSPost2010Prop56
140
1.0
102
RTVSPost2010PropOp56
 70
     1
102
RTVSPost2010Prop57
140
1.0
102
RTVSPost2010PropOp57
 70
     1
  0
XRECORD
  5
3CC
102
{ACAD_REACTORS
330
3CB
102
}
330
3CB
100
AcDbXrecord
280
     1
102
RTVSPost2010Prop28
280
     0
102
RTVSPost2010PropOp28
 70
     1
102
RTVSPost2010Prop29
280
     1
102
RTVSPost2010PropOp29
 70
     1
102
RTVSPost2010Prop30
280
     1
102
RTVSPost2010PropOp30
 70
     1
102
RTVSPost2010Prop31
280
     0
102
RTVSPost2010PropOp31
 70
     1
102
RTVSPost2010Prop32
280
     0
102
RTVSPost2010PropOp32
 70
     1
102
RTVSPost2010Prop33
280
     0
102
RTVSPost2010PropOp33
 70
     1
102
RTVSPost2010Prop34
280
     0
102
RTVSPost2010PropOp34
 70
     1
102
RTVSPost2010Prop35
280
     0
102
RTVSPost2010PropOp35
 70
     1
102
RTVSPost2010Prop36
280
     0
102
RTVSPost2010PropOp36
 70
     1
102
RTVSPost2010Prop37
 90
       50
102
RTVSPost2010PropOp37
 70
     1
102
RTVSPost2010Prop38
140
0.0
102
RTVSPost2010PropOp38
 70
     1
102
RTVSPost2010Prop39
140
1.0
102
RTVSPost2010PropOp39
 70
     1
102
RTVSPost2010Prop40
 90
        0
102
RTVSPost2010PropOp40
 70
     1
102
RTVSPost2010Prop41ColorIndex
 90
       18
102
RTVSPost2010Prop41ColorRGB
 90
        0
102
RTVSPost2010PropOp41
 70
     1
102
RTVSPost2010Prop42
 90
       50
102
RTVSPost2010PropOp42
 70
     1
102
RTVSPost2010Prop43
 90
        3
102
RTVSPost2010PropOp43
 70
     1
102
RTVSPost2010Prop44ColorIndex
 90
        5
102
RTVSPost2010Prop44ColorRGB
 90
      255
102
RTVSPost2010PropOp44
 70
     1
102
RTVSPost2010Prop45
280
     0
102
RTVSPost2010PropOp45
 70
     1
102
RTVSPost2010Prop46
 90
       50
102
RTVSPost2010PropOp46
 70
     1
102
RTVSPost2010Prop47
 90
       50
102
RTVSPost2010PropOp47
 70
     1
102
RTVSPost2010Prop48
 90
       50
102
RTVSPost2010PropOp48
 70
     1
102
RTVSPost2010Prop49
280
     0
102
RTVSPost2010PropOp49
 70
     1
102
RTVSPost2010Prop50
 90
       50
102
RTVSPost2010PropOp50
 70
     1
102
RTVSPost2010Prop51ColorIndex
 90
      256
102
RTVSPost2010Prop51ColorRGB
 90
-16777216
102
RTVSPost2010PropOp51
 70
     0
102
RTVSPost2010Prop52
140
1.0
102
RTVSPost2010PropOp52
 70
     0
102
RTVSPost2010Prop53
 90
        2
102
RTVSPost2010PropOp53
 70
     1
102
RTVSPost2010Prop54
  1
strokes_ogs.tif
102
RTVSPost2010PropOp54
 70
     1
102
RTVSPost2010Prop55
280
     0
102
RTVSPost2010PropOp55
 70
     1
102
RTVSPost2010Prop56
140
1.0
102
RTVSPost2010PropOp56
 70
     1
102
RTVSPost2010Prop57
140
1.0
102
RTVSPost2010PropOp57
 70
     1
  0
XRECORD
  5
3C6
102
{ACAD_REACTORS
330
3C5
102
}
330
3C5
100
AcDbXrecord
280
     1
102
RTVSPost2010Prop28
280
     0
102
RTVSPost2010PropOp28
 70
     1
102
RTVSPost2010Prop29
280
     1
102
RTVSPost2010PropOp29
 70
     1
102
RTVSPost2010Prop30
280
     1
102
RTVSPost2010PropOp30
 70
     1
102
RTVSPost2010Prop31
280
     0
102
RTVSPost2010PropOp31
 70
     1
102
RTVSPost2010Prop32
280
     0
102
RTVSPost2010PropOp32
 70
     1
102
RTVSPost2010Prop33
280
     0
102
RTVSPost2010PropOp33
 70
     1
102
RTVSPost2010Prop34
280
     0
102
RTVSPost2010PropOp34
 70
     1
102
RTVSPost2010Prop35
280
     0
102
RTVSPost2010PropOp35
 70
     1
102
RTVSPost2010Prop36
280
     0
102
RTVSPost2010PropOp36
 70
     1
102
RTVSPost2010Prop37
 90
       50
102
RTVSPost2010PropOp37
 70
     1
102
RTVSPost2010Prop38
140
0.0
102
RTVSPost2010PropOp38
 70
     1
102
RTVSPost2010Prop39
140
1.0
102
RTVSPost2010PropOp39
 70
     1
102
RTVSPost2010Prop40
 90
        0
102
RTVSPost2010PropOp40
 70
     1
102
RTVSPost2010Prop41ColorIndex
 90
       18
102
RTVSPost2010Prop41ColorRGB
 90
        0
102
RTVSPost2010PropOp41
 70
     1
102
RTVSPost2010Prop42
 90
       50
102
RTVSPost2010PropOp42
 70
     1
102
RTVSPost2010Prop43
 90
        3
102
RTVSPost2010PropOp43
 70
     1
102
RTVSPost2010Prop44ColorIndex
 90
        5
102
RTVSPost2010Prop44ColorRGB
 90
      255
102
RTVSPost2010PropOp44
 70
     1
102
RTVSPost2010Prop45
280
     0
102
RTVSPost2010PropOp45
 70
     1
102
RTVSPost2010Prop46
 90
       50
102
RTVSPost2010PropOp46
 70
     1
102
RTVSPost2010Prop47
 90
       50
102
RTVSPost2010PropOp47
 70
     1
102
RTVSPost2010Prop48
 90
       50
102
RTVSPost2010PropOp48
 70
     1
102
RTVSPost2010Prop49
280
     0
102
RTVSPost2010PropOp49
 70
     1
102
RTVSPost2010Prop50
 90
       50
102
RTVSPost2010PropOp50
 70
     1
102
RTVSPost2010Prop51ColorIndex
 90
      256
102
RTVSPost2010Prop51ColorRGB
 90
-16777216
102
RTVSPost2010PropOp51
 70
     0
102
RTVSPost2010Prop52
140
1.0
102
RTVSPost2010PropOp52
 70
     0
102
RTVSPost2010Prop53
 90
        2
102
RTVSPost2010PropOp53
 70
     1
102
RTVSPost2010Prop54
  1
strokes_ogs.tif
102
RTVSPost2010PropOp54
 70
     1
102
RTVSPost2010Prop55
280
     0
102
RTVSPost2010PropOp55
 70
     1
102
RTVSPost2010Prop56
140
1.0
102
RTVSPost2010PropOp56
 70
     1
102
RTVSPost2010Prop57
140
1.0
102
RTVSPost2010PropOp57
 70
     1
  0
XRECORD
  5
3C8
102
{ACAD_REACTORS
330
3C7
102
}
330
3C7
100
AcDbXrecord
280
     1
102
RTVSPost2010Prop28
280
     0
102
RTVSPost2010PropOp28
 70
     1
102
RTVSPost2010Prop29
280
     1
102
RTVSPost2010PropOp29
 70
     1
102
RTVSPost2010Prop30
280
     1
102
RTVSPost2010PropOp30
 70
     1
102
RTVSPost2010Prop31
280
     0
102
RTVSPost2010PropOp31
 70
     1
102
RTVSPost2010Prop32
280
     0
102
RTVSPost2010PropOp32
 70
     1
102
RTVSPost2010Prop33
280
     0
102
RTVSPost2010PropOp33
 70
     1
102
RTVSPost2010Prop34
280
     0
102
RTVSPost2010PropOp34
 70
     1
102
RTVSPost2010Prop35
280
     0
102
RTVSPost2010PropOp35
 70
     1
102
RTVSPost2010Prop36
280
     0
102
RTVSPost2010PropOp36
 70
     1
102
RTVSPost2010Prop37
 90
       50
102
RTVSPost2010PropOp37
 70
     1
102
RTVSPost2010Prop38
140
0.0
102
RTVSPost2010PropOp38
 70
     1
102
RTVSPost2010Prop39
140
1.0
102
RTVSPost2010PropOp39
 70
     1
102
RTVSPost2010Prop40
 90
        0
102
RTVSPost2010PropOp40
 70
     1
102
RTVSPost2010Prop41ColorIndex
 90
       18
102
RTVSPost2010Prop41ColorRGB
 90
        0
102
RTVSPost2010PropOp41
 70
     1
102
RTVSPost2010Prop42
 90
       50
102
RTVSPost2010PropOp42
 70
     1
102
RTVSPost2010Prop43
 90
        3
102
RTVSPost2010PropOp43
 70
     1
102
RTVSPost2010Prop44ColorIndex
 90
        5
102
RTVSPost2010Prop44ColorRGB
 90
      255
102
RTVSPost2010PropOp44
 70
     1
102
RTVSPost2010Prop45
280
     0
102
RTVSPost2010PropOp45
 70
     1
102
RTVSPost2010Prop46
 90
       50
102
RTVSPost2010PropOp46
 70
     1
102
RTVSPost2010Prop47
 90
       50
102
RTVSPost2010PropOp47
 70
     1
102
RTVSPost2010Prop48
 90
       50
102
RTVSPost2010PropOp48
 70
     1
102
RTVSPost2010Prop49
280
     0
102
RTVSPost2010PropOp49
 70
     1
102
RTVSPost2010Prop50
 90
       50
102
RTVSPost2010PropOp50
 70
     1
102
RTVSPost2010Prop51ColorIndex
 90
      256
102
RTVSPost2010Prop51ColorRGB
 90
-16777216
102
RTVSPost2010PropOp51
 70
     0
102
RTVSPost2010Prop52
140
1.0
102
RTVSPost2010PropOp52
 70
     0
102
RTVSPost2010Prop53
 90
        2
102
RTVSPost2010PropOp53
 70
     1
102
RTVSPost2010Prop54
  1
strokes_ogs.tif
102
RTVSPost2010PropOp54
 70
     1
102
RTVSPost2010Prop55
280
     0
102
RTVSPost2010PropOp55
 70
     1
102
RTVSPost2010Prop56
140
1.0
102
RTVSPost2010PropOp56
 70
     1
102
RTVSPost2010Prop57
140
1.0
102
RTVSPost2010PropOp57
 70
     1
  0
XRECORD
  5
3B8
102
{ACAD_REACTORS
330
3B7
102
}
330
3B7
100
AcDbXrecord
280
     1
102
RTVSPost2010Prop28
280
     0
102
RTVSPost2010PropOp28
 70
     1
102
RTVSPost2010Prop29
280
     1
102
RTVSPost2010PropOp29
 70
     1
102
RTVSPost2010Prop30
280
     1
102
RTVSPost2010PropOp30
 70
     1
102
RTVSPost2010Prop31
280
     0
102
RTVSPost2010PropOp31
 70
     1
102
RTVSPost2010Prop32
280
     0
102
RTVSPost2010PropOp32
 70
     1
102
RTVSPost2010Prop33
280
     0
102
RTVSPost2010PropOp33
 70
     1
102
RTVSPost2010Prop34
280
     0
102
RTVSPost2010PropOp34
 70
     1
102
RTVSPost2010Prop35
280
     0
102
RTVSPost2010PropOp35
 70
     1
102
RTVSPost2010Prop36
280
     0
102
RTVSPost2010PropOp36
 70
     1
102
RTVSPost2010Prop37
 90
       50
102
RTVSPost2010PropOp37
 70
     1
102
RTVSPost2010Prop38
140
0.0
102
RTVSPost2010PropOp38
 70
     1
102
RTVSPost2010Prop39
140
1.0
102
RTVSPost2010PropOp39
 70
     1
102
RTVSPost2010Prop40
 90
        0
102
RTVSPost2010PropOp40
 70
     1
102
RTVSPost2010Prop41ColorIndex
 90
       18
102
RTVSPost2010Prop41ColorRGB
 90
        0
102
RTVSPost2010PropOp41
 70
     1
102
RTVSPost2010Prop42
 90
       50
102
RTVSPost2010PropOp42
 70
     1
102
RTVSPost2010Prop43
 90
        3
102
RTVSPost2010PropOp43
 70
     1
102
RTVSPost2010Prop44ColorIndex
 90
        5
102
RTVSPost2010Prop44ColorRGB
 90
      255
102
RTVSPost2010PropOp44
 70
     1
102
RTVSPost2010Prop45
280
     0
102
RTVSPost2010PropOp45
 70
     1
102
RTVSPost2010Prop46
 90
       50
102
RTVSPost2010PropOp46
 70
     1
102
RTVSPost2010Prop47
 90
       50
102
RTVSPost2010PropOp47
 70
     1
102
RTVSPost2010Prop48
 90
       50
102
RTVSPost2010PropOp48
 70
     1
102
RTVSPost2010Prop49
280
     0
102
RTVSPost2010PropOp49
 70
     1
102
RTVSPost2010Prop50
 90
       50
102
RTVSPost2010PropOp50
 70
     1
102
RTVSPost2010Prop51ColorIndex
 90
      256
102
RTVSPost2010Prop51ColorRGB
 90
-16777216
102
RTVSPost2010PropOp51
 70
     0
102
RTVSPost2010Prop52
140
1.0
102
RTVSPost2010PropOp52
 70
     0
102
RTVSPost2010Prop53
 90
        2
102
RTVSPost2010PropOp53
 70
     1
102
RTVSPost2010Prop54
  1
strokes_ogs.tif
102
RTVSPost2010PropOp54
 70
     1
102
RTVSPost2010Prop55
280
     0
102
RTVSPost2010PropOp55
 70
     1
102
RTVSPost2010Prop56
140
1.0
102
RTVSPost2010PropOp56
 70
     1
102
RTVSPost2010Prop57
140
1.0
102
RTVSPost2010PropOp57
 70
     1
  0
XRECORD
  5
3AA
102
{ACAD_REACTORS
330
3A9
102
}
330
3A9
100
AcDbXrecord
280
     1
102
RTVSPost2010Prop28
280
     0
102
RTVSPost2010PropOp28
 70
     1
102
RTVSPost2010Prop29
280
     1
102
RTVSPost2010PropOp29
 70
     1
102
RTVSPost2010Prop30
280
     1
102
RTVSPost2010PropOp30
 70
     1
102
RTVSPost2010Prop31
280
     0
102
RTVSPost2010PropOp31
 70
     1
102
RTVSPost2010Prop32
280
     0
102
RTVSPost2010PropOp32
 70
     1
102
RTVSPost2010Prop33
280
     0
102
RTVSPost2010PropOp33
 70
     1
102
RTVSPost2010Prop34
280
     0
102
RTVSPost2010PropOp34
 70
     1
102
RTVSPost2010Prop35
280
     0
102
RTVSPost2010PropOp35
 70
     1
102
RTVSPost2010Prop36
280
     0
102
RTVSPost2010PropOp36
 70
     1
102
RTVSPost2010Prop37
 90
       50
102
RTVSPost2010PropOp37
 70
     1
102
RTVSPost2010Prop38
140
0.0
102
RTVSPost2010PropOp38
 70
     1
102
RTVSPost2010Prop39
140
1.0
102
RTVSPost2010PropOp39
 70
     1
102
RTVSPost2010Prop40
 90
        0
102
RTVSPost2010PropOp40
 70
     1
102
RTVSPost2010Prop41ColorIndex
 90
       18
102
RTVSPost2010Prop41ColorRGB
 90
        0
102
RTVSPost2010PropOp41
 70
     1
102
RTVSPost2010Prop42
 90
       50
102
RTVSPost2010PropOp42
 70
     1
102
RTVSPost2010Prop43
 90
        3
102
RTVSPost2010PropOp43
 70
     1
102
RTVSPost2010Prop44ColorIndex
 90
        5
102
RTVSPost2010Prop44ColorRGB
 90
      255
102
RTVSPost2010PropOp44
 70
     1
102
RTVSPost2010Prop45
280
     0
102
RTVSPost2010PropOp45
 70
     1
102
RTVSPost2010Prop46
 90
       50
102
RTVSPost2010PropOp46
 70
     1
102
RTVSPost2010Prop47
 90
       50
102
RTVSPost2010PropOp47
 70
     1
102
RTVSPost2010Prop48
 90
       50
102
RTVSPost2010PropOp48
 70
     1
102
RTVSPost2010Prop49
280
     0
102
RTVSPost2010PropOp49
 70
     1
102
RTVSPost2010Prop50
 90
       50
102
RTVSPost2010PropOp50
 70
     1
102
RTVSPost2010Prop51ColorIndex
 90
      256
102
RTVSPost2010Prop51ColorRGB
 90
-16777216
102
RTVSPost2010PropOp51
 70
     0
102
RTVSPost2010Prop52
140
1.0
102
RTVSPost2010PropOp52
 70
     0
102
RTVSPost2010Prop53
 90
        2
102
RTVSPost2010PropOp53
 70
     1
102
RTVSPost2010Prop54
  1
strokes_ogs.tif
102
RTVSPost2010PropOp54
 70
     1
102
RTVSPost2010Prop55
280
     0
102
RTVSPost2010PropOp55
 70
     1
102
RTVSPost2010Prop56
140
1.0
102
RTVSPost2010PropOp56
 70
     1
102
RTVSPost2010Prop57
140
1.0
102
RTVSPost2010PropOp57
 70
     1
  0
XRECORD
  5
3CA
102
{ACAD_REACTORS
330
3C9
102
}
330
3C9
100
AcDbXrecord
280
     1
102
RTVSPost2010Prop28
280
     0
102
RTVSPost2010PropOp28
 70
     1
102
RTVSPost2010Prop29
280
     1
102
RTVSPost2010PropOp29
 70
     1
102
RTVSPost2010Prop30
280
     1
102
RTVSPost2010PropOp30
 70
     1
102
RTVSPost2010Prop31
280
     0
102
RTVSPost2010PropOp31
 70
     1
102
RTVSPost2010Prop32
280
     0
102
RTVSPost2010PropOp32
 70
     1
102
RTVSPost2010Prop33
280
     0
102
RTVSPost2010PropOp33
 70
     1
102
RTVSPost2010Prop34
280
     0
102
RTVSPost2010PropOp34
 70
     1
102
RTVSPost2010Prop35
280
     0
102
RTVSPost2010PropOp35
 70
     1
102
RTVSPost2010Prop36
280
     0
102
RTVSPost2010PropOp36
 70
     1
102
RTVSPost2010Prop37
 90
       50
102
RTVSPost2010PropOp37
 70
     1
102
RTVSPost2010Prop38
140
0.0
102
RTVSPost2010PropOp38
 70
     1
102
RTVSPost2010Prop39
140
1.0
102
RTVSPost2010PropOp39
 70
     1
102
RTVSPost2010Prop40
 90
        0
102
RTVSPost2010PropOp40
 70
     1
102
RTVSPost2010Prop41ColorIndex
 90
       18
102
RTVSPost2010Prop41ColorRGB
 90
        0
102
RTVSPost2010PropOp41
 70
     1
102
RTVSPost2010Prop42
 90
       50
102
RTVSPost2010PropOp42
 70
     1
102
RTVSPost2010Prop43
 90
        3
102
RTVSPost2010PropOp43
 70
     1
102
RTVSPost2010Prop44ColorIndex
 90
        5
102
RTVSPost2010Prop44ColorRGB
 90
      255
102
RTVSPost2010PropOp44
 70
     1
102
RTVSPost2010Prop45
280
     0
102
RTVSPost2010PropOp45
 70
     1
102
RTVSPost2010Prop46
 90
       50
102
RTVSPost2010PropOp46
 70
     1
102
RTVSPost2010Prop47
 90
       50
102
RTVSPost2010PropOp47
 70
     1
102
RTVSPost2010Prop48
 90
       50
102
RTVSPost2010PropOp48
 70
     1
102
RTVSPost2010Prop49
280
     0
102
RTVSPost2010PropOp49
 70
     1
102
RTVSPost2010Prop50
 90
       50
102
RTVSPost2010PropOp50
 70
     1
102
RTVSPost2010Prop51ColorIndex
 90
      256
102
RTVSPost2010Prop51ColorRGB
 90
-16777216
102
RTVSPost2010PropOp51
 70
     0
102
RTVSPost2010Prop52
140
1.0
102
RTVSPost2010PropOp52
 70
     0
102
RTVSPost2010Prop53
 90
        2
102
RTVSPost2010PropOp53
 70
     1
102
RTVSPost2010Prop54
  1
strokes_ogs.tif
102
RTVSPost2010PropOp54
 70
     1
102
RTVSPost2010Prop55
280
     0
102
RTVSPost2010PropOp55
 70
     1
102
RTVSPost2010Prop56
140
1.0
102
RTVSPost2010PropOp56
 70
     1
102
RTVSPost2010Prop57
140
1.0
102
RTVSPost2010PropOp57
 70
     1
  0
ENDSEC
  0
EOF
